<?xml version="1.0" standalone="no"?>
<!DOCTYPE svg PUBLIC "-//W3C//DTD SVG 1.1//EN" "http://www.w3.org/Graphics/SVG/1.1/DTD/svg11.dtd" >
<svg xmlns="http://www.w3.org/2000/svg">
<metadata>
This is a custom SVG font generated by IcoMoon.
1
</metadata>
<defs>
<font id="wpzoom" horiz-adv-x="512" >
<font-face units-per-em="512" ascent="480" descent="-32" />
<missing-glyph horiz-adv-x="512" />
<glyph unicode="&#x21;" d="M0.00,10.667c0.00-23.573, 19.093-42.667, 42.667-42.667l 426.667,0.00 c 23.573,0.00, 42.667,19.093, 42.667,42.667L 512.00,437.333 c0.00,23.573-19.093,42.667-42.667,42.667L 42.667,480.00 
	C 19.093,480.00,0.00,460.907,0.00,437.333L0.00,10.667 z M 266.667,32.00L 266.667,202.667 l-42.667,0.00 l0.00,64.00 l 42.667,0.00 C 266.667,376.64, 271.349,384.00, 405.333,384.00l0.00-64.00 c-70.613,0.00-64.00-3.947-64.00-53.333l 64.00,0.00 l0.00-64.00 l-64.00,0.00 l0.00-170.667 L 266.667,32.00 z" />
<glyph unicode="&#x22;" d="M0.00,10.667c0.00-23.573, 19.093-42.667, 42.667-42.667l 426.667,0.00 c 23.573,0.00, 42.667,19.093, 42.667,42.667L 512.00,437.333 c0.00,23.573-19.093,42.667-42.667,42.667L 42.667,480.00 
	C 19.093,480.00,0.00,460.907,0.00,437.333L0.00,10.667 z M 330.667,213.333L 224.00,213.333 l0.00-32.00 c0.00-11.733, 9.60-21.333, 21.333-21.333l 85.333,0.00 c 23.573,0.00, 42.667-19.093, 42.667-42.667s-19.093-42.667-42.667-42.667L 224.00,74.667 c-47.147,0.00-85.333,38.187-85.333,85.333L 138.667,341.333 c0.00,23.573, 19.093,42.667, 42.667,42.667
	s 42.667-19.093, 42.667-42.667l0.00-42.667 l 106.667,0.00 c 23.573,0.00, 42.667-19.093, 42.667-42.667S 354.24,213.333, 330.667,213.333z" />
<glyph unicode="&#x23;" d="M0.00,10.667c0.00-23.573, 19.093-42.667, 42.667-42.667l 426.667,0.00 c 23.573,0.00, 42.667,19.093, 42.667,42.667L 512.00,437.333 c0.00,23.573-19.093,42.667-42.667,42.667L 42.667,480.00 
	C 19.093,480.00,0.00,460.907,0.00,437.333L0.00,10.667 z M 96.00,224.00c0.00,35.307, 28.693,64.00, 64.00,64.00c 14.72,0.00, 28.267-5.013, 39.04-13.227l 89.163,40.427C 288.00,316.80, 288.00,318.40, 288.00,320.00c0.00,35.307, 28.683,64.00, 64.00,64.00
	s 64.00-28.693, 64.00-64.00s-28.683-64.00-64.00-64.00c-16.427,0.00-31.467,6.187-42.773,16.427l-85.973-39.04C 223.787,230.293, 224.00,227.20, 224.00,224.00s-0.213-6.293-0.747-9.387l 85.973-38.933
	C 320.533,185.813, 335.573,192.00, 352.00,192.00c 35.317,0.00, 64.00-28.683, 64.00-64.00s-28.683-64.00-64.00-64.00s-64.00,28.683-64.00,64.00c0.00,1.60,0.00,3.20, 0.213,4.80l-89.163,40.533
	C 188.267,165.013, 174.72,160.00, 160.00,160.00C 124.693,160.00, 96.00,188.683, 96.00,224.00z" />
<glyph unicode="&#x24;" d="M0.00,10.667c0.00-23.573, 19.093-42.667, 42.667-42.667l 426.667,0.00 c 23.573,0.00, 42.667,19.093, 42.667,42.667L 512.00,437.333 c0.00,23.573-19.093,42.667-42.667,42.667L 42.667,480.00 
	C 19.093,480.00,0.00,460.907,0.00,437.333L0.00,10.667 z M 416.00,101.333c0.00-14.72-11.947-26.667-26.667-26.667S 362.667,86.613, 362.667,101.333C 362.667,222.08, 264.736,320.00, 144.00,320.00c-14.72,0.00-26.667,11.947-26.667,26.667
	s 11.947,26.667, 26.667,26.667c 79.147,0.00, 144.107-27.307, 195.093-78.293C 391.349,242.773, 416.00,177.92, 416.00,101.333z M 320.00,101.333c0.00-14.72-11.947-26.667-26.667-26.667S 266.667,86.613, 266.667,101.333
	C 266.667,169.067, 211.733,224.00, 144.00,224.00c-14.72,0.00-26.667,11.947-26.667,26.667s 11.947,26.667, 26.667,26.667C 241.173,277.333, 320.00,198.496, 320.00,101.333z M 117.333,122.667
	c0.00,26.56, 21.44,48.00, 48.00,48.00s 48.00-21.44, 48.00-48.00S 191.893,74.667, 165.333,74.667S 117.333,96.107, 117.333,122.667z" />
<glyph unicode="&#x25;" d="M 469.429,288.00l 31.893,0.00 c 2.773,0.00, 5.547,1.067, 7.68,3.093c 4.16,4.16, 4.16,10.987,0.00,15.147
	c-2.891,2.773-38.613,45.76-38.613,45.76s 35.733,42.987, 38.613,45.76c 4.16,4.16, 4.16,10.987,0.00,15.147C 506.869,414.933, 504.096,416.00, 501.323,416.00l-51.317,0.00 
	c-23.349,38.40-65.707,64.00-113.92,64.00c-73.60,0.00-133.333-59.733-133.333-133.333c0.00-44.16-35.84-80.00-80.00-80.00l-0.32,0.00 L 21.216,266.667 c-11.744,0.00-21.333-9.60-21.333-21.333l 0.107-2.88
	c 9.493-92.80, 74.443-169.60, 160.107-198.293l0.00-49.493 c0.00-14.72, 11.947-26.667, 26.667-26.667s 26.667,11.947, 26.667,26.667l0.00,38.293 c 7.04-0.64, 14.187-0.96, 21.333-0.96
	s 14.293,0.32, 21.333,0.96l0.00-38.293 c0.00-14.72, 11.947-26.667, 26.667-26.667s 26.667,11.947, 26.667,26.667l0.00,49.493 c 93.013,31.157, 160.00,119.04, 160.00,222.507L 469.429,288.00 z M 341.429,389.333
	c0.00,14.72, 11.947,26.667, 26.667,26.667s 26.667-11.947, 26.667-26.667s-11.947-26.667-26.667-26.667S 341.429,374.613, 341.429,389.333z M 258.656,231.893
	c 15.04-32.651, 9.163-72.544-17.707-99.413c-26.453-26.56-65.707-32.651-98.027-18.24l-3.413,1.813c-6.827,3.627-11.403,10.773-11.403,18.987
	c0.00,6.293, 2.667,11.947, 6.933,15.893c 2.123,1.92, 88.213,88.107, 88.213,88.107c 8.427,8.427, 22.08,8.427, 30.40,0.00c 1.28-1.28, 2.453-2.667, 3.317-4.16
	L 258.656,231.893z" />
<glyph unicode="&#x26;" d="M0.00,128.00c0.00-23.573, 19.093-42.667, 42.667-42.667l 64.00,0.00 l0.00-65.813 c0.00-11.84, 9.60-21.333, 21.333-21.333
	c 5.984,0.00, 11.403,2.453, 15.253,6.40L 224.00,85.333l 234.667,0.00 c 23.573,0.00, 42.667,19.093, 42.667,42.667L 501.333,394.667 c0.00,23.573-19.093,42.667-42.667,42.667L 42.667,437.333 C 19.093,437.333,0.00,418.24,0.00,394.667L0.00,128.00 z M 128.00,250.667
	c0.00,14.72, 11.947,26.667, 26.667,26.667s 26.667-11.947, 26.667-26.667S 169.387,224.00, 154.667,224.00S 128.00,235.947, 128.00,250.667z M 224.00,250.667c0.00,14.72, 11.947,26.667, 26.667,26.667s 26.667-11.947, 26.667-26.667
	S 265.387,224.00, 250.667,224.00S 224.00,235.947, 224.00,250.667z M 320.00,250.667c0.00,14.72, 11.947,26.667, 26.667,26.667s 26.667-11.947, 26.667-26.667S 361.387,224.00, 346.667,224.00S 320.00,235.947, 320.00,250.667z" />
<glyph unicode="&#x27;" d="M0.00,74.667c0.00-23.573, 19.093-42.667, 42.667-42.667l 426.667,0.00 c 23.573,0.00, 42.667,19.093, 42.667,42.667L 512.00,362.667 c0.00,23.573-19.093,42.667-42.667,42.667L 42.667,405.333 
	c-23.573,0.00-42.667-19.093-42.667-42.667L0.00,74.667 z M 157.013,218.347l-97.60,98.24c-8.096,8.107-8.096,21.227,0.00,29.333c 8.117,8.107, 21.237,8.107, 29.333,0.00L 244.48,189.984
	c 6.293-6.187, 16.651-6.187, 22.837,0.00L 423.253,345.92c 8.107,8.107, 21.227,8.107, 29.333,0.00c 8.107-8.107, 8.107-21.227,0.00-29.333l-97.707-98.24l 97.707-97.589
	c 8.107-8.107, 8.107-21.227,0.00-29.333s-21.227-8.107-29.333,0.00l-97.60,97.493c0.00,0.00-30.496-31.04-36.043-36.587C 280.96,143.893, 269.013,138.667, 256.00,138.667
	c-13.227,0.00-25.173,5.333-33.813,13.984c-5.653,5.547-35.947,36.256-35.947,36.256l-97.504-97.493c-8.096-8.107-21.216-8.107-29.333,0.00
	c-8.096,8.107-8.096,21.227,0.00,29.333L 157.013,218.347z" />
<glyph unicode="&#x28;" d="M 512.00,256.107c0.00,14.933-6.187,28.48-16.107,38.187L 293.867,464.32c-20.907,20.907-54.827,20.907-75.733,0.00
	L 16.107,294.293C 6.187,284.587,0.00,271.04,0.00,256.107L0.00,10.667 c0.00-23.573, 19.093-42.667, 42.667-42.667l 426.667,0.00 c 23.573,0.00, 42.667,19.093, 42.667,42.667L 512.00,256.107 z M 108.80,298.667l 294.40,0.00 c 13.013,0.00, 23.467-10.453, 23.467-23.467
	L 426.667,234.667 c-0.107-5.12-2.133-10.133-6.08-14.08l-65.707-66.24l 97.707-97.589c 8.107-8.107, 8.107-21.227,0.00-29.333s-21.227-8.107-29.333,0.00L 322.667,128.00L 189.12,128.00 l-100.373-100.587
	c-8.107-8.107-21.227-8.107-29.333,0.00c-8.107,8.107-8.107,21.227,0.00,29.333l 97.60,97.589l-65.60,66.24c-4.267,4.267-6.293,9.813-6.08,15.467L 85.333,275.20 
	C 85.333,288.213, 95.787,298.667, 108.80,298.667z" />
<glyph unicode="&#x29;" d="M 256.00,480.00C 164.80,480.00, 73.387,463.68, 40.213,431.147c-27.52-26.987-36.693-74.667-39.787-104.853
	c0.00,0.00-0.427-2.987-0.427-4.267c0.00-11.84, 9.60-21.333, 21.333-21.333c 1.387,0.00, 52.693,4.16, 83.627,6.72c 0.747,0.107, 1.493,0.213, 2.24,0.427c 11.52,0.32, 20.80,9.707, 20.80,21.333
	l 0.107,42.027C 128.107,384.213, 138.667,394.667, 151.68,394.667l 208.629,0.00 C 373.333,394.667, 383.893,384.213, 383.893,371.20L 384.00,329.173c0.00-11.627, 9.28-21.013, 20.80-21.333
	c 0.736-0.213, 1.493-0.32, 2.24-0.427c 30.933-2.56, 82.24-6.72, 83.627-6.72c 11.733,0.00, 21.333,9.493, 21.333,21.333c0.00,1.28-0.427,4.267-0.427,4.267
	c-3.093,30.187-12.256,77.867-39.776,104.853C 438.613,463.68, 347.20,480.00, 256.00,480.00z M 256.00,202.667c-23.573,0.00-42.667-19.093-42.667-42.667s 19.093-42.667, 42.667-42.667s 42.667,19.093, 42.667,42.667S 279.573,202.667, 256.00,202.667z
	 M 224.00,298.667l0.00,26.667 c0.00,14.72-11.947,26.667-26.667,26.667S 170.667,340.053, 170.667,325.333L 170.667,298.667 L 26.773,144.96C 16.853,135.253, 10.667,121.707, 10.667,106.773L 10.667,64.00 c0.00-23.573, 19.093-42.667, 42.667-42.667l 10.667,0.00 l0.00-26.667 
	C 64.00-20.053, 75.947-32.00, 90.667-32.00s 26.667,11.947, 26.667,26.667L 117.333,21.333 l 277.333,0.00 l0.00-26.667 c0.00-14.72, 11.947-26.667, 26.667-26.667s 26.667,11.947, 26.667,26.667L 448.00,21.333 l 10.667,0.00 c 23.573,0.00, 42.667,19.093, 42.667,42.667l0.00,42.773 
	c0.00,14.933-6.187,28.48-16.107,38.187L 341.333,298.667l0.00,26.667 c0.00,14.72-11.947,26.667-26.667,26.667S 288.00,340.053, 288.00,325.333L 288.00,298.667 L 224.00,298.667 z M 256.00,245.333c 47.147,0.00, 85.333-38.187, 85.333-85.333s-38.187-85.333-85.333-85.333
	s-85.333,38.187-85.333,85.333S 208.853,245.333, 256.00,245.333z" />
<glyph unicode="&#x2a;" d="M 256.832,0.864c 43.723-43.84, 114.56-43.84, 158.283,0.00
	c 27.211,27.20, 37.547,64.853, 30.837,100.053c 11.52,5.867, 21.856,12.693, 30.496,19.093c 0.96,0.747, 5.227,3.733, 6.293,4.587c 4.811,3.947, 7.893,9.92, 7.893,16.651
	c0.00,6.40-2.773,12.16-7.253,16.00l-88.00,72.533c-3.627,2.987-8.309,4.80-13.44,4.80c-5.771,0.00-10.997-2.24-14.837-5.867
	c-1.504-1.493-14.709-15.04-14.709-15.04c-9.184-9.173-24.00-9.173-33.184,0.00l-89.803,89.92c-9.173,9.173-9.173,24.107,0.00,33.28l 14.613,14.613
	c 3.84,3.84, 6.08,9.173, 6.08,14.923c0.00,5.76-2.24,10.891-5.867,14.72l-75.413,91.093c-3.947,4.693-9.92,7.787-16.533,7.787
	c-7.04,0.00-13.227-3.413-17.173-8.64l-1.28-1.707c-16.427-22.187-37.867-57.387-37.867-90.453c0.00-91.093, 203.104-293.867, 293.333-293.867
	c 1.707,0.00, 3.413,0.107, 5.024,0.107c 1.60-16.747-4.064-34.016-16.853-46.933c-22.933-22.923-60.064-22.923-82.997,0.00l-147.296,151.36
	c-31.253,31.253-81.813,31.253-113.067,0.00c-31.253-31.253-31.253-81.813,0.00-113.067l 48.32-47.68c 10.453-10.357, 27.307-10.357, 37.76,0.00c 10.347,10.443, 10.347,27.307,0.00,37.749
	l-48.427,47.584c-10.347,10.443-10.347,27.307,0.00,37.749c 10.453,10.357, 27.307,10.357, 37.76,0.00L 256.832,0.864z" />
<glyph unicode="&#x2b;" d="M 74.667,10.667c0.00-23.573, 19.093-42.667, 42.667-42.667l 266.667,0.00 c 23.573,0.00, 42.667,19.093, 42.667,42.667L 426.667,453.333 C 426.667,468.053, 414.72,480.00, 400.00,480.00
	S 373.333,468.053, 373.333,453.333L 373.333,426.667 L 117.333,426.667 C 93.76,426.667, 74.667,407.573, 74.667,384.00L 74.667,10.667 z M 151.467,373.333l 198.40,0.00 c 13.013,0.00, 23.467-10.453, 23.467-23.467l0.00-113.067 c0.00-13.013-10.453-23.467-23.467-23.467L 151.467,213.333 
	c-13.013,0.00-23.467,10.453-23.467,23.467L 128.00,349.867 C 128.00,362.88, 138.453,373.333, 151.467,373.333z M 128.00,144.00c0.00,14.72, 11.947,26.667, 26.667,26.667s 26.667-11.947, 26.667-26.667S 169.387,117.333, 154.667,117.333
	S 128.00,129.28, 128.00,144.00z M 224.00,144.00c0.00,14.72, 11.947,26.667, 26.667,26.667s 26.667-11.947, 26.667-26.667S 265.387,117.333, 250.667,117.333S 224.00,129.28, 224.00,144.00z M 320.00,144.00
	c0.00,14.72, 11.947,26.667, 26.667,26.667s 26.667-11.947, 26.667-26.667S 361.387,117.333, 346.667,117.333S 320.00,129.28, 320.00,144.00z M 128.00,48.00c0.00,14.72, 11.947,26.667, 26.667,26.667s 26.667-11.947, 26.667-26.667
	S 169.387,21.333, 154.667,21.333S 128.00,33.28, 128.00,48.00z M 224.00,48.00c0.00,14.72, 11.947,26.667, 26.667,26.667s 26.667-11.947, 26.667-26.667S 265.387,21.333, 250.667,21.333S 224.00,33.28, 224.00,48.00z
	 M 320.00,48.00c0.00,14.72, 11.947,26.667, 26.667,26.667s 26.667-11.947, 26.667-26.667S 361.387,21.333, 346.667,21.333S 320.00,33.28, 320.00,48.00z" />
<glyph unicode="&#x2c;" d="M 64.00,10.667c0.00-23.573, 19.093-42.667, 42.667-42.667l 288.00,0.00 c 23.573,0.00, 42.667,19.093, 42.667,42.667L 437.333,437.333 c0.00,23.573-19.093,42.667-42.667,42.667L 106.667,480.00 
	C 83.093,480.00, 64.00,460.907, 64.00,437.333L 64.00,10.667 z M 140.80,426.667l 219.733,0.00 C 373.547,426.667, 384.00,416.213, 384.00,403.20l0.00-262.40 c0.00-13.013-10.453-23.467-23.467-23.467L 140.80,117.333 c-13.013,0.00-23.467,10.453-23.467,23.467L 117.333,403.20 
	C 117.333,416.213, 127.787,426.667, 140.80,426.667z M 224.00,48.00c0.00,14.72, 11.947,26.667, 26.667,26.667s 26.667-11.947, 26.667-26.667S 265.387,21.333, 250.667,21.333S 224.00,33.28, 224.00,48.00z" />
<glyph unicode="&#x2d;" d="M 224.00,90.667c0.00-14.72, 11.947-26.667, 26.667-26.667s 26.667,11.947, 26.667,26.667S 265.387,117.333, 250.667,117.333
	S 224.00,105.387, 224.00,90.667z M 64.00,10.667c0.00-23.573, 19.093-42.667, 42.667-42.667l 288.00,0.00 c 23.573,0.00, 42.667,19.093, 42.667,42.667L 437.333,437.333 c0.00,23.573-19.093,42.667-42.667,42.667L 106.667,480.00 C 83.093,480.00, 64.00,460.907, 64.00,437.333L 64.00,10.667 z M 140.80,426.667l 219.733,0.00 
	C 373.547,426.667, 384.00,416.213, 384.00,403.20l0.00-177.067 c0.00-13.013-10.453-23.467-23.467-23.467L 140.80,202.667 c-13.013,0.00-23.467,10.453-23.467,23.467L 117.333,403.20 C 117.333,416.213, 127.787,426.667, 140.80,426.667z M 181.333,90.667
	c0.00,38.293, 31.04,69.333, 69.333,69.333s 69.333-31.04, 69.333-69.333S 288.96,21.333, 250.667,21.333S 181.333,52.373, 181.333,90.667z" />
<glyph unicode="&#x2e;" d="M 181.333,64.00c 11.733,0.00, 21.333-9.60, 21.333-21.333s-9.60-21.333-21.333-21.333L 101.333,21.333 C 86.613,21.333, 74.667,9.387, 74.667-5.333
	S 86.613-32.00, 101.333-32.00l 298.667,0.00 c 14.72,0.00, 26.667,11.947, 26.667,26.667S 414.72,21.333, 400.00,21.333L 320.00,21.333 c-11.733,0.00-21.333,9.60-21.333,21.333s 9.60,21.333, 21.333,21.333l 138.667,0.00 c 23.573,0.00, 42.667,19.093, 42.667,42.667L 501.333,437.333 
	c0.00,23.573-19.093,42.667-42.667,42.667L 42.667,480.00 C 19.093,480.00,0.00,460.907,0.00,437.333l0.00-330.667 c0.00-23.573, 19.093-42.667, 42.667-42.667L 181.333,64.00 z M 224.00,144.00c0.00,14.72, 11.947,26.667, 26.667,26.667s 26.667-11.947, 26.667-26.667
	S 265.387,117.333, 250.667,117.333S 224.00,129.28, 224.00,144.00z M 76.80,426.667l 347.733,0.00 C 437.547,426.667, 448.00,416.213, 448.00,403.20l0.00-166.40 c0.00-13.013-10.453-23.467-23.467-23.467L 76.80,213.333 C 63.787,213.333, 53.333,223.787, 53.333,236.80
	L 53.333,403.20 C 53.333,416.213, 63.787,426.667, 76.80,426.667z" />
<glyph unicode="&#x2f;" d="M 458.667,160.00L 458.667,416.00 c0.00,23.573-19.093,42.667-42.667,42.667L 96.00,458.667 C 72.427,458.667, 53.333,439.573, 53.333,416.00l0.00-256.00 L0.00,53.333l0.00-21.333 c0.00-23.573, 19.093-42.667, 42.667-42.667
	l 426.667,0.00 c 23.573,0.00, 42.667,19.093, 42.667,42.667l0.00,21.333 L 458.667,160.00z M 130.133,405.333l 251.733,0.00 C 394.88,405.333, 405.333,394.88, 405.333,381.867l0.00-166.40 c0.00-13.013-10.453-23.467-23.467-23.467L 130.133,192.00 c-13.013,0.00-23.467,10.453-23.467,23.467
	L 106.667,381.867 C 106.667,394.88, 117.12,405.333, 130.133,405.333z M 192.00,96.00l 128.00,0.00 l 10.667-42.667L 181.333,53.333 L 192.00,96.00z" />
<glyph unicode="&#x30;" d="M0.00,10.667c0.00-23.573, 19.093-42.667, 42.667-42.667l 426.667,0.00 c 23.573,0.00, 42.667,19.093, 42.667,42.667L 512.00,128.00 c0.00,23.573-19.093,42.667-42.667,42.667L 341.333,170.667 L 341.333,282.667 
	c0.00,14.72-11.947,26.667-26.667,26.667S 288.00,297.387, 288.00,282.667L 288.00,170.667 L 42.667,170.667 c-23.573,0.00-42.667-19.093-42.667-42.667L0.00,10.667 z M 53.333,69.333C 53.333,84.053, 65.28,96.00, 80.00,96.00s 26.667-11.947, 26.667-26.667
	S 94.72,42.667, 80.00,42.667S 53.333,54.613, 53.333,69.333z M 149.333,69.333c0.00,14.72, 11.947,26.667, 26.667,26.667s 26.667-11.947, 26.667-26.667S 190.72,42.667, 176.00,42.667S 149.333,54.613, 149.333,69.333z M 314.667,394.667
	C 252.80,394.667, 202.667,344.533, 202.667,282.667c0.00-14.72, 11.947-26.667, 26.667-26.667s 26.667,11.947, 26.667,26.667c0.00,32.427, 26.24,58.667, 58.667,58.667s 58.667-26.24, 58.667-58.667
	c0.00-14.72, 11.947-26.667, 26.667-26.667s 26.667,11.947, 26.667,26.667C 426.667,344.533, 376.533,394.667, 314.667,394.667z M 314.667,480.00C 205.653,480.00, 117.333,391.68, 117.333,282.667c0.00-14.72, 11.947-26.667, 26.667-26.667
	s 26.667,11.947, 26.667,26.667C 170.667,362.24, 235.093,426.667, 314.667,426.667S 458.667,362.24, 458.667,282.667c0.00-14.72, 11.947-26.667, 26.667-26.667s 26.667,11.947, 26.667,26.667C 512.00,391.68, 423.691,480.00, 314.667,480.00z" />
<glyph unicode="&#x31;" d="M 224.00,314.667c0.00,14.72, 11.947,26.667, 26.667,26.667s 26.667-11.947, 26.667-26.667S 265.387,288.00, 250.667,288.00
	S 224.00,299.947, 224.00,314.667z M 250.667,384.00c-38.293,0.00-69.333-31.04-69.333-69.333s 31.04-69.333, 69.333-69.333s 69.333,31.04, 69.333,69.333S 288.96,384.00, 250.667,384.00z M 192.00,64.00c 11.733,0.00, 21.333-9.60, 21.333-21.333
	s-9.60-21.333-21.333-21.333l-80.00,0.00 C 97.28,21.333, 85.333,9.387, 85.333-5.333S 97.28-32.00, 112.00-32.00l 277.333,0.00 c 14.72,0.00, 26.667,11.947, 26.667,26.667S 404.053,21.333, 389.333,21.333L 309.333,21.333 c-11.733,0.00-21.333,9.60-21.333,21.333
	s 9.60,21.333, 21.333,21.333l 64.00,0.00 c 23.573,0.00, 42.667,19.093, 42.667,42.667L 416.00,437.333 c0.00,23.573-19.093,42.667-42.667,42.667L 128.00,480.00 C 104.427,480.00, 85.333,460.907, 85.333,437.333l0.00-330.667 c0.00-23.573, 19.093-42.667, 42.667-42.667L 192.00,64.00 z M 309.333,144.00
	c0.00,14.72, 11.947,26.667, 26.667,26.667s 26.667-11.947, 26.667-26.667S 350.72,117.333, 336.00,117.333S 309.333,129.28, 309.333,144.00z M 250.667,426.667C 312.533,426.667, 362.667,376.533, 362.667,314.667S 312.533,202.667, 250.667,202.667
	S 138.667,252.80, 138.667,314.667S 188.80,426.667, 250.667,426.667z" />
<glyph unicode="&#x32;" d="M 286.933,124.053l 31.04-31.04c 10.229-10.24, 26.763-10.24, 37.003,0.00
	c 10.251,10.24, 10.251,26.784,0.00,37.013L 324.053,161.067l 30.923,30.933c0.00,0.00-117.109,50.027-121.909,51.84C 230.507,244.80, 227.84,245.333, 225.067,245.333
	c-12.373,0.00-22.40-9.92-22.40-22.187c0.00-2.88, 0.533-5.547, 1.493-8.00C 205.973,210.56, 256.00,93.013, 256.00,93.013L 286.933,124.053z M0.00,21.333c0.00-23.573, 19.093-42.667, 42.667-42.667l 426.667,0.00 
	c 23.573,0.00, 42.667,19.093, 42.667,42.667L 512.00,416.00 c0.00,23.573-19.093,42.667-42.667,42.667L 42.667,458.667 C 19.093,458.667,0.00,439.573,0.00,416.00L0.00,21.333 z M 76.80,309.333l 358.40,0.00 c 13.013,0.00, 23.467-10.453, 23.467-23.467l0.00-230.40 
	c0.00-13.013-10.453-23.467-23.467-23.467L 76.80,32.00 C 63.787,32.00, 53.333,42.453, 53.333,55.467L 53.333,285.867 C 53.333,298.88, 63.787,309.333, 76.80,309.333z M 53.333,378.667C 53.333,393.387, 65.28,405.333, 80.00,405.333S 106.667,393.387, 106.667,378.667
	S 94.72,352.00, 80.00,352.00S 53.333,363.947, 53.333,378.667z M 149.333,378.667C 149.333,393.387, 161.28,405.333, 176.00,405.333S 202.667,393.387, 202.667,378.667S 190.72,352.00, 176.00,352.00S 149.333,363.947, 149.333,378.667z M 245.333,378.667
	C 245.333,393.387, 257.28,405.333, 272.00,405.333S 298.667,393.387, 298.667,378.667S 286.72,352.00, 272.00,352.00S 245.333,363.947, 245.333,378.667z" />
<glyph unicode="&#x33;" d="M 373.333,368.00c0.00-14.72, 11.947-26.667, 26.667-26.667s 26.667,11.947, 26.667,26.667S 414.72,394.667, 400.00,394.667
	S 373.333,382.72, 373.333,368.00z M 373.333,197.333c0.00-14.72, 11.947-26.667, 26.667-26.667s 26.667,11.947, 26.667,26.667S 414.72,224.00, 400.00,224.00S 373.333,212.053, 373.333,197.333z M0.00,128.00c0.00-23.573, 19.093-42.667, 42.667-42.667
	l 181.333,0.00 l0.00-29.44 c-5.227-3.52-9.707-8.00-13.227-13.227L 80.00,42.667 C 65.28,42.667, 53.333,30.72, 53.333,16.00S 65.28-10.667, 80.00-10.667l 130.773,0.00 c 8.64-12.907, 23.253-21.333, 39.893-21.333
	s 31.253,8.427, 39.893,21.333L 432.00-10.667 c 14.72,0.00, 26.667,11.947, 26.667,26.667S 446.72,42.667, 432.00,42.667L 290.56,42.667 c-3.52,5.227-8.00,9.707-13.227,13.227L 277.333,85.333 l 192.00,0.00 c 23.573,0.00, 42.667,19.093, 42.667,42.667L 512.00,437.333 
	c0.00,23.573-19.093,42.667-42.667,42.667L 42.667,480.00 C 19.093,480.00,0.00,460.907,0.00,437.333L0.00,128.00 z M 76.80,426.667l 358.40,0.00 C 448.213,426.667, 458.667,416.213, 458.667,403.20l0.00-70.40 c0.00-13.013-10.453-23.467-23.467-23.467L 76.80,309.333 
	C 63.787,309.333, 53.333,319.787, 53.333,332.80L 53.333,403.20 C 53.333,416.213, 63.787,426.667, 76.80,426.667z M 76.80,256.00l 358.40,0.00 c 13.013,0.00, 23.467-10.453, 23.467-23.467l0.00-70.40 c0.00-13.013-10.453-23.467-23.467-23.467L 76.80,138.667 
	C 63.787,138.667, 53.333,149.12, 53.333,162.133l0.00,70.40 C 53.333,245.547, 63.787,256.00, 76.80,256.00z" />
<glyph unicode="&#x34;" d="M 277.333,282.667c0.00,14.72-11.947,26.667-26.667,26.667S 224.00,297.387, 224.00,282.667s 11.947-26.667, 26.667-26.667
	S 277.333,267.947, 277.333,282.667z M 85.333,480.00C 55.893,480.00, 32.00,456.107, 32.00,426.667l0.00-405.333 c0.00-29.44, 23.893-53.333, 53.333-53.333l 330.667,0.00 c 29.44,0.00, 53.333,23.893, 53.333,53.333L 469.333,426.667 c0.00,29.44-23.893,53.333-53.333,53.333L 85.333,480.00 z M 250.667,426.667
	C 330.24,426.667, 394.667,362.24, 394.667,282.667c0.00-41.493-17.504-78.933-45.653-105.173c-14.40,10.891-27.84,21.557-35.52,29.333c-22.923,22.933-60.053,22.933-82.987,0.00
	c-17.376-17.387-21.547-43.093-12.587-64.427C 154.133,157.227, 106.667,214.40, 106.667,282.667C 106.667,362.24, 171.093,426.667, 250.667,426.667z M 85.333,48.00c0.00,14.72, 11.947,26.667, 26.667,26.667
	s 26.667-11.947, 26.667-26.667S 126.72,21.333, 112.00,21.333S 85.333,33.28, 85.333,48.00z M 260.80,176.533c 6.40,6.411, 16.736,6.411, 23.253,0.00c 3.744-3.84, 108.597-77.653, 120.747-89.813
	c 14.923-15.04, 14.923-39.253,0.00-54.187c-14.933-14.923-39.157-14.923-54.187,0.00c-12.80,12.80-86.304,117.333-89.813,120.747C 254.40,159.787, 254.40,170.133, 260.80,176.533z" />
<glyph unicode="&#x35;" d="M 437.333,320.00c0.00,53.013-42.987,96.00-96.00,96.00L 170.667,416.00 c-19.84,0.00-36.597,13.547-41.28,32.00
	c0.00,0.00-1.387,3.52-1.387,5.333C 128.00,468.053, 116.053,480.00, 101.333,480.00S 74.667,468.053, 74.667,453.333c0.00-2.027, 0.213-3.947, 0.651-5.867C 80.853,399.68, 121.387,362.667, 170.667,362.667l 170.667,0.00 
	c 23.573,0.00, 42.667-19.093, 42.667-42.667L 42.667,320.00 c-23.573,0.00-42.667-19.093-42.667-42.667l0.00-266.667 c0.00-23.573, 19.093-42.667, 42.667-42.667l 426.667,0.00 c 23.573,0.00, 42.667,19.093, 42.667,42.667L 512.00,277.333 c0.00,23.573-19.093,42.667-42.667,42.667L 437.333,320.00 z M 314.667,266.667
	c 14.72,0.00, 26.667-11.947, 26.667-26.667S 329.387,213.333, 314.667,213.333S 288.00,225.28, 288.00,240.00S 299.947,266.667, 314.667,266.667z M 314.667,170.667c 14.72,0.00, 26.667-11.947, 26.667-26.667S 329.387,117.333, 314.667,117.333
	S 288.00,129.28, 288.00,144.00S 299.947,170.667, 314.667,170.667z M 197.333,266.667c 14.72,0.00, 26.667-11.947, 26.667-26.667S 212.053,213.333, 197.333,213.333S 170.667,225.28, 170.667,240.00S 182.613,266.667, 197.333,266.667z
	 M 197.333,170.667c 14.72,0.00, 26.667-11.947, 26.667-26.667S 212.053,117.333, 197.333,117.333S 170.667,129.28, 170.667,144.00S 182.613,170.667, 197.333,170.667z M 80.00,266.667c 14.72,0.00, 26.667-11.947, 26.667-26.667
	S 94.72,213.333, 80.00,213.333S 53.333,225.28, 53.333,240.00S 65.28,266.667, 80.00,266.667z M 80.00,170.667c 14.72,0.00, 26.667-11.947, 26.667-26.667S 94.72,117.333, 80.00,117.333S 53.333,129.28, 53.333,144.00S 65.28,170.667, 80.00,170.667z
	 M 80.00,74.667c 14.72,0.00, 26.667-11.947, 26.667-26.667S 94.72,21.333, 80.00,21.333S 53.333,33.28, 53.333,48.00S 65.28,74.667, 80.00,74.667z M 432.00,266.667c 14.72,0.00, 26.667-11.947, 26.667-26.667
	S 446.72,213.333, 432.00,213.333S 405.333,225.28, 405.333,240.00S 417.28,266.667, 432.00,266.667z M 432.00,170.667c 14.72,0.00, 26.667-11.947, 26.667-26.667S 446.72,117.333, 432.00,117.333S 405.333,129.28, 405.333,144.00
	S 417.28,170.667, 432.00,170.667z M 432.00,74.667c 14.72,0.00, 26.667-11.947, 26.667-26.667S 446.72,21.333, 432.00,21.333S 405.333,33.28, 405.333,48.00S 417.28,74.667, 432.00,74.667z M 341.333,21.333L 170.667,21.333 
	c-11.733,0.00-21.333,9.60-21.333,21.333s 9.60,21.333, 21.333,21.333l 170.667,0.00 c 11.733,0.00, 21.333-9.60, 21.333-21.333S 353.067,21.333, 341.333,21.333z" />
<glyph unicode="&#x36;" d="M 480.00,223.467c0.00,63.68-46.187,116.587-106.773,126.72C 371.413,422.187, 312.427,480.00, 240.00,480.00
	C 166.40,480.00, 106.667,420.267, 106.667,346.667L 106.667,181.333 c0.00-29.44-23.893-53.333-53.333-53.333L 48.00,128.00 C 33.28,128.00, 21.333,116.053, 21.333,101.333S 33.28,74.667, 48.00,74.667L 53.333,74.667 c 58.88,0.00, 106.667,47.787, 106.667,106.667L 160.00,346.667 
	C 160.00,390.827, 195.84,426.667, 240.00,426.667c 43.733,0.00, 79.349-35.093, 80.00-78.72c-55.253-14.293-96.00-64.64-96.00-124.48l0.00-126.933 C 224.00,25.60, 281.28-32.00, 352.00-32.00s 128.00,57.60, 128.00,128.533L 480.00,223.467 z
	 M 373.333,277.333l0.00-64.00 c0.00-11.733-9.60-21.333-21.333-21.333s-21.333,9.60-21.333,21.333l0.00,64.00 c0.00,11.733, 9.60,21.333, 21.333,21.333S 373.333,289.067, 373.333,277.333z" />
<glyph unicode="&#x37;" d="M 224.00,218.667c0.00,14.72, 11.947,26.667, 26.667,26.667s 26.667-11.947, 26.667-26.667S 265.387,192.00, 250.667,192.00
	S 224.00,203.947, 224.00,218.667z M 250.667,288.00c-38.293,0.00-69.333-31.04-69.333-69.333s 31.04-69.333, 69.333-69.333s 69.333,31.04, 69.333,69.333S 288.96,288.00, 250.667,288.00z M0.00,218.667
	C0.00,80.213, 112.213-32.00, 250.667-32.00C 389.12-32.00, 501.333,80.213, 501.333,218.667C 501.333,357.12, 389.12,469.333, 250.667,469.333C 112.213,469.333,0.00,357.12,0.00,218.667z M 250.667,330.667
	C 312.533,330.667, 362.667,280.533, 362.667,218.667S 312.533,106.667, 250.667,106.667S 138.667,156.80, 138.667,218.667S 188.80,330.667, 250.667,330.667z" />
<glyph unicode="&#x38;" d="M 224.00,122.667c0.00-14.72, 11.947-26.667, 26.667-26.667s 26.667,11.947, 26.667,26.667S 265.387,149.333, 250.667,149.333
	S 224.00,137.387, 224.00,122.667z M 42.667,480.00C 19.093,480.00,0.00,460.907,0.00,437.333l0.00-426.667 c0.00-23.573, 19.093-42.667, 42.667-42.667l 426.667,0.00 c 23.573,0.00, 42.667,19.093, 42.667,42.667L 512.00,374.187 c0.00,14.293-5.643,26.987-14.72,36.16L 443.093,464.32
	C 433.504,474.027, 420.053,480.00, 405.333,480.00L 42.667,480.00 z M 76.80,426.667L 106.667,426.667 l0.00-83.20 c0.00-13.013, 10.453-23.467, 23.467-23.467l 27.733,0.00 c 13.013,0.00, 23.467,10.453, 23.467,23.467L 181.333,426.667 l 200.533,0.00 C 394.88,426.667, 405.333,416.213, 405.333,403.20
	l0.00-102.40 c0.00-13.013-10.453-23.467-23.467-23.467L 76.80,277.333 C 63.787,277.333, 53.333,287.787, 53.333,300.80L 53.333,403.20 C 53.333,416.213, 63.787,426.667, 76.80,426.667z M 181.333,122.667c0.00,38.293, 31.04,69.333, 69.333,69.333
	s 69.333-31.04, 69.333-69.333S 288.96,53.333, 250.667,53.333S 181.333,84.373, 181.333,122.667z" />
<glyph unicode="&#x39;" d="M 64.00,74.667c0.00-23.573, 19.093-42.667, 42.667-42.667l 10.667,0.00 l0.00-37.333 c0.00-14.72, 11.947-26.667, 26.667-26.667s 26.667,11.947, 26.667,26.667L 170.667,32.00 
	l 53.333,0.00 l0.00-37.333 c0.00-14.72, 11.947-26.667, 26.667-26.667s 26.667,11.947, 26.667,26.667L 277.333,32.00 l 53.333,0.00 l0.00-37.333 c0.00-14.72, 11.947-26.667, 26.667-26.667s 26.667,11.947, 26.667,26.667L 384.00,32.00 l 10.667,0.00 c 23.573,0.00, 42.667,19.093, 42.667,42.667l0.00,10.667 l 37.333,0.00 
	c 14.72,0.00, 26.667,11.947, 26.667,26.667S 489.387,138.667, 474.667,138.667L 437.333,138.667 l0.00,53.333 l 37.333,0.00 c 14.72,0.00, 26.667,11.947, 26.667,26.667S 489.387,245.333, 474.667,245.333L 437.333,245.333 l0.00,53.333 l 37.333,0.00 c 14.72,0.00, 26.667,11.947, 26.667,26.667
	S 489.387,352.00, 474.667,352.00L 437.333,352.00 l0.00,10.667 c0.00,23.573-19.093,42.667-42.667,42.667l-10.667,0.00 L 384.00,442.667 C 384.00,457.387, 372.053,469.333, 357.333,469.333S 330.667,457.387, 330.667,442.667L 330.667,405.333 l-53.333,0.00 L 277.333,442.667 C 277.333,457.387, 265.387,469.333, 250.667,469.333
	S 224.00,457.387, 224.00,442.667L 224.00,405.333 l-53.333,0.00 L 170.667,442.667 C 170.667,457.387, 158.72,469.333, 144.00,469.333S 117.333,457.387, 117.333,442.667L 117.333,405.333 l-10.667,0.00 c-23.573,0.00-42.667-19.093-42.667-42.667l0.00-10.667 L 26.667,352.00 C 11.947,352.00,0.00,340.053,0.00,325.333
	S 11.947,298.667, 26.667,298.667L 64.00,298.667 l0.00-53.333 L 26.667,245.333 C 11.947,245.333,0.00,233.387,0.00,218.667S 11.947,192.00, 26.667,192.00L 64.00,192.00 l0.00-53.333 L 26.667,138.667 C 11.947,138.667,0.00,126.72,0.00,112.00S 11.947,85.333, 26.667,85.333L 64.00,85.333 L 64.00,74.667 z M 330.667,275.20l0.00-113.067 
	c0.00-13.013-10.453-23.467-23.467-23.467L 194.133,138.667 c-13.013,0.00-23.467,10.453-23.467,23.467L 170.667,275.20 c0.00,13.013, 10.453,23.467, 23.467,23.467l 113.067,0.00 C 320.213,298.667, 330.667,288.213, 330.667,275.20z" />
<glyph unicode="&#x3a;" d="M 367.787,467.627c-16.437,16.533-43.104,16.533-59.637,0.00l-126.72-126.40l-26.976,26.987
	l-96.32-96.747C 47.68,261.013, 42.667,247.477, 42.667,233.493L 42.667,106.667 l 0.213-0.213L 12.373,75.829c-16.533-16.523-16.533-43.189,0.00-59.627L 48.213-19.627
	c 16.437-16.544, 43.104-16.544, 59.627,0.00l 30.624,30.496L 138.667,10.667l 127.04,0.00 c 13.643-0.213, 27.52,5.024, 37.973,15.477L 400.00,122.667l-26.773,26.773l 126.40,126.72
	c 16.533,16.533, 16.533,43.20,0.00,59.627L 367.787,467.627z M 410.016,313.60l 10.251-10.24c 8.533-8.533, 8.533-22.187,0.00-30.72l-10.251-10.24c-8.533-8.533-22.187-8.533-30.709,0.00
	l-10.251,10.24c-8.533,8.533-8.533,22.187,0.00,30.72l 10.251,10.24C 387.829,322.144, 401.493,322.144, 410.016,313.60z M 335.349,388.267L 345.60,378.027
	c 8.533-8.533, 8.533-22.187,0.00-30.72l-10.251-10.24c-8.533-8.533-22.187-8.533-30.709,0.00l-10.251,10.24c-8.533,8.533-8.533,22.187,0.00,30.72l 10.251,10.24
	C 313.163,396.811, 326.827,396.811, 335.349,388.267z" />
<glyph unicode="&#x3b;" d="M 328.661,472.341l-93.984-93.867l-40.651,40.533c-10.229,10.24-26.773,10.24-37.013,0.00
	s-10.24-26.773,0.00-37.013l 5.76-5.76l-45.44-45.547c-58.667-58.667-70.72-145.184-28.373-213.771l-76.587-76.587c-16.544-16.523-16.544-43.413,0.00-59.936
	c 16.533-16.544, 43.413-16.544, 59.829,0.00l 76.597,76.683c 68.80-42.667, 155.104-30.496, 213.867,28.267l 45.44,45.547l 5.877-5.877c 10.229-10.229, 26.752-10.229, 37.003,0.00
	c 10.251,10.251, 10.251,26.795,0.00,37.024l-45.984,45.984l 99.317,99.307c 10.251,10.24, 10.251,26.773,0.00,37.013s-26.773,10.24-37.003,0.00l-99.317-99.20l-96.331,96.213
	l 93.984,93.973c 10.251,10.24, 10.251,26.773,0.00,37.013S 338.891,482.581, 328.661,472.341z" />
<glyph unicode="&#x3c;" d="M 160.00,218.667c0.00-14.72, 11.947-26.667, 26.667-26.667s 26.667,11.947, 26.667,26.667S 201.387,245.333, 186.667,245.333
	S 160.00,233.387, 160.00,218.667z M 288.00,218.667c0.00-14.72, 11.947-26.667, 26.667-26.667s 26.667,11.947, 26.667,26.667S 329.387,245.333, 314.667,245.333S 288.00,233.387, 288.00,218.667z M0.00,10.667c0.00-23.573, 19.093-42.667, 42.667-42.667
	l 416.00,0.00 c 23.573,0.00, 42.667,19.093, 42.667,42.667L 501.333,426.667 c0.00,23.573-19.093,42.667-42.667,42.667L 42.667,469.333 C 19.093,469.333,0.00,450.24,0.00,426.667L0.00,10.667 z M 106.667,218.667C 106.667,298.24, 171.093,362.667, 250.667,362.667S 394.667,298.24, 394.667,218.667
	S 330.24,74.667, 250.667,74.667S 106.667,139.093, 106.667,218.667z" />
<glyph unicode="&#x3d;" d="M 85.333,336.00l0.00-53.333 c0.00-14.72, 11.947-26.667, 26.667-26.667s 26.667,11.947, 26.667,26.667l0.00,53.333 
	c0.00,14.72-11.947,26.667-26.667,26.667S 85.333,350.72, 85.333,336.00z M 181.333,336.00l0.00-53.333 c0.00-14.72, 11.947-26.667, 26.667-26.667s 26.667,11.947, 26.667,26.667l0.00,53.333 c0.00,14.72-11.947,26.667-26.667,26.667
	S 181.333,350.72, 181.333,336.00z M 277.333,336.00l0.00-53.333 c0.00-14.72, 11.947-26.667, 26.667-26.667s 26.667,11.947, 26.667,26.667l0.00,53.333 c0.00,14.72-11.947,26.667-26.667,26.667S 277.333,350.72, 277.333,336.00z M 373.333,336.00l0.00-53.333 
	c0.00-14.72, 11.947-26.667, 26.667-26.667s 26.667,11.947, 26.667,26.667l0.00,53.333 c0.00,14.72-11.947,26.667-26.667,26.667S 373.333,350.72, 373.333,336.00z M0.00,10.667c0.00-23.573, 19.093-42.667, 42.667-42.667l 426.667,0.00 
	c 23.573,0.00, 42.667,19.093, 42.667,42.667L 512.00,437.333 c0.00,23.573-19.093,42.667-42.667,42.667L 42.667,480.00 C 19.093,480.00,0.00,460.907,0.00,437.333L0.00,10.667 z M 76.80,394.667l 358.40,0.00 c 13.013,0.00, 23.467-10.453, 23.467-23.467l0.00-166.40 c0.00-13.013-10.453-23.467-23.467-23.467
	L 405.333,181.333 l0.00-40.533 c0.00-13.013-10.453-23.467-23.467-23.467L 320.00,117.333 l0.00-40.533 c0.00-13.013-10.453-23.467-23.467-23.467l-81.067,0.00 c-13.013,0.00-23.467,10.453-23.467,23.467L 192.00,117.333 l-61.867,0.00 c-13.013,0.00-23.467,10.453-23.467,23.467
	L 106.667,181.333 L 76.80,181.333 C 63.787,181.333, 53.333,191.787, 53.333,204.80L 53.333,371.20 C 53.333,384.213, 63.787,394.667, 76.80,394.667z" />
<glyph unicode="&#x3e;" d="M 213.333,170.667l0.00-53.333 l 85.333,0.00 l0.00,53.333 c0.00,23.573-19.093,42.667-42.667,42.667S 213.333,194.24, 213.333,170.667z M 138.667,304.00l0.00-53.333 
	c0.00-14.72, 11.947-26.667, 26.667-26.667s 26.667,11.947, 26.667,26.667l0.00,53.333 c0.00,14.72-11.947,26.667-26.667,26.667S 138.667,318.72, 138.667,304.00z M 320.00,304.00l0.00-53.333 c0.00-14.72, 11.947-26.667, 26.667-26.667
	s 26.667,11.947, 26.667,26.667l0.00,53.333 c0.00,14.72-11.947,26.667-26.667,26.667S 320.00,318.72, 320.00,304.00z M0.00,10.667c0.00-23.573, 19.093-42.667, 42.667-42.667l 426.667,0.00 c 23.573,0.00, 42.667,19.093, 42.667,42.667L 512.00,437.333 c0.00,23.573-19.093,42.667-42.667,42.667
	L 42.667,480.00 C 19.093,480.00,0.00,460.907,0.00,437.333L0.00,10.667 z M 74.667,224.00c0.00,51.52, 10.453,100.48, 29.333,145.173l 1.067,2.667C 108.48,379.093, 115.84,384.00, 124.373,384.00l 263.253,0.00 
	c 8.544,0.00, 15.893-4.907, 19.317-12.16l 1.067-2.667C 426.88,324.48, 437.333,275.52, 437.333,224.00s-10.453-100.48-29.333-145.173l-1.067-2.667
	C 403.52,68.907, 396.171,64.00, 387.627,64.00L 124.373,64.00 c-8.533,0.00-15.893,4.907-19.307,12.16l-1.067,2.667C 85.12,123.52, 74.667,172.48, 74.667,224.00z" />
<glyph unicode="&#x3f;" d="M0.00,10.667c0.00-23.573, 19.093-42.667, 42.667-42.667l 426.667,0.00 c 23.573,0.00, 42.667,19.093, 42.667,42.667L 512.00,266.667 c0.00,23.573-19.093,42.667-42.667,42.667l-32.00,0.00 L 437.333,437.333 
	c0.00,23.573-19.093,42.667-42.667,42.667L 117.333,480.00 C 93.76,480.00, 74.667,460.907, 74.667,437.333l0.00-128.00 L 42.667,309.333 c-23.573,0.00-42.667-19.093-42.667-42.667L0.00,10.667 z M 384.00,403.20l0.00-123.733 c0.00-13.013-10.453-23.467-23.467-23.467L 151.467,256.00 
	c-13.013,0.00-23.467,10.453-23.467,23.467L 128.00,403.20 C 128.00,416.213, 138.453,426.667, 151.467,426.667l 209.067,0.00 C 373.547,426.667, 384.00,416.213, 384.00,403.20z M 416.00,21.333L 96.00,21.333 c-11.733,0.00-21.333,9.60-21.333,21.333s 9.60,21.333, 21.333,21.333l 320.00,0.00 
	c 11.733,0.00, 21.333-9.60, 21.333-21.333S 427.733,21.333, 416.00,21.333z M 74.667,133.333C 74.667,148.053, 86.613,160.00, 101.333,160.00s 26.667-11.947, 26.667-26.667S 116.053,106.667, 101.333,106.667S 74.667,118.613, 74.667,133.333z" />
<glyph unicode="&#x40;" d="M 288.00,186.667c0.00,14.72, 11.947,26.667, 26.667,26.667s 26.667-11.947, 26.667-26.667S 329.387,160.00, 314.667,160.00
	S 288.00,171.947, 288.00,186.667z M 314.667,256.00c-38.293,0.00-69.333-31.04-69.333-69.333s 31.04-69.333, 69.333-69.333s 69.333,31.04, 69.333,69.333S 352.96,256.00, 314.667,256.00z M0.00,64.00
	c0.00-23.573, 19.093-42.667, 42.667-42.667l 426.667,0.00 c 23.573,0.00, 42.667,19.093, 42.667,42.667L 512.00,309.333 c0.00,23.573-19.093,42.667-42.667,42.667l-40.00,0.00 l-54.613,54.613C 368.427,412.907, 360.213,416.00, 352.00,416.00l-74.56,0.00 
	c-8.213,0.00-16.533-3.093-22.72-9.387L 200.32,352.00L 160.00,352.00 L 160.00,376.00 C 160.00,386.347, 151.68,394.667, 141.333,394.667l-69.333,0.00 C 61.653,394.667, 53.333,386.347, 53.333,376.00L 53.333,352.00 L 42.667,352.00 c-23.573,0.00-42.667-19.093-42.667-42.667L0.00,64.00 z
	 M 138.667,256.00L 74.667,256.00 c-11.733,0.00-21.333,9.60-21.333,21.333c0.00,11.733, 9.60,21.333, 21.333,21.333l 64.00,0.00 c 11.733,0.00, 21.333-9.60, 21.333-21.333C 160.00,265.60, 150.40,256.00, 138.667,256.00z M 314.667,298.667C 376.533,298.667, 426.667,248.533, 426.667,186.667
	S 376.533,74.667, 314.667,74.667S 202.667,124.80, 202.667,186.667S 252.80,298.667, 314.667,298.667z" />
<glyph unicode="&#x41;" d="M 362.667,346.667c0.00-14.72, 11.947-26.667, 26.667-26.667s 26.667,11.947, 26.667,26.667S 404.053,373.333, 389.333,373.333
	S 362.667,361.387, 362.667,346.667z M 96.00,202.667l0.00-29.333 C 96.00,160.107, 106.773,149.333, 120.00,149.333L 416.00,149.333 l-101.984,100.267c-8.533,8.533-22.187,8.533-30.709,0.00l-21.557-21.227l-54.411,53.227
	c-8.533,8.533-23.883,8.533-32.309,0.00L 96.00,202.667z M0.00,21.333c0.00-23.573, 19.093-42.667, 42.667-42.667l 426.667,0.00 c 23.573,0.00, 42.667,19.093, 42.667,42.667L 512.00,426.667 c0.00,23.573-19.093,42.667-42.667,42.667L 42.667,469.333 C 19.093,469.333,0.00,450.24,0.00,426.667L0.00,21.333 z
	 M 76.80,416.00l 358.40,0.00 C 448.213,416.00, 458.667,405.547, 458.667,392.533l0.00-262.40 c0.00-13.013-10.453-23.467-23.467-23.467L 76.80,106.667 C 63.787,106.667, 53.333,117.12, 53.333,130.133L 53.333,392.533 C 53.333,405.547, 63.787,416.00, 76.80,416.00z" />
<glyph unicode="&#x42;" d="M 191.947,224.00c0.00-35.317, 28.683-64.00, 64.00-64.00s 64.00,28.683, 64.00,64.00l0.00,0.533 
	c-6.837-6.933-16.213-11.20-26.667-11.20c-20.597,0.00-37.333,16.747-37.333,37.333c0.00,14.827, 8.736,27.733, 21.227,33.707c-6.613,2.347-13.76,3.627-21.227,3.627
	C 220.64,288.00, 191.947,259.307, 191.947,224.00z M 497.653,260.373C 457.973,310.827, 361.333,394.667, 256.053,394.667c-105.387,0.00-202.123-83.84-241.813-134.293
	c-8.96-11.52-13.867-24.00-14.187-36.373c 0.32-12.373, 5.227-24.853, 14.187-36.373C 53.931,137.163, 150.56,53.333, 255.947,53.333s 202.016,83.829, 241.707,134.293
	c 9.067,11.52, 13.973,24.00, 14.293,36.373C 511.627,236.373, 506.72,248.853, 497.653,260.373z M 255.947,117.333c-58.88,0.00-106.667,47.787-106.667,106.667c0.00,58.88, 47.787,106.667, 106.667,106.667
	s 106.667-47.787, 106.667-106.667C 362.613,165.12, 314.827,117.333, 255.947,117.333z" />
<glyph unicode="&#x43;" d="M 74.667,480.00C 51.093,480.00, 32.00,460.907, 32.00,437.333l0.00-426.667 c0.00-23.573, 19.093-42.667, 42.667-42.667l 352.00,0.00 c 23.573,0.00, 42.667,19.093, 42.667,42.667L 469.333,181.333 l-19.20,0.00 
	c-13.013,0.00-23.467,10.453-23.467,23.467l0.00,59.733 c0.00,13.013, 10.453,23.467, 23.467,23.467L 469.333,288.00 L 469.333,374.187 c0.00,14.293-5.653,26.987-14.72,36.16l-54.187,53.973C 390.827,474.027, 377.387,480.00, 362.667,480.00L 74.667,480.00 z
	 M 128.00,405.333l0.00-96.00 c0.00-11.733-9.60-21.333-21.333-21.333s-21.333,9.60-21.333,21.333L 85.333,405.333 c0.00,11.733, 9.60,21.333, 21.333,21.333S 128.00,417.067, 128.00,405.333z M 224.00,405.333l0.00-96.00 c0.00-11.733-9.60-21.333-21.333-21.333s-21.333,9.60-21.333,21.333L 181.333,405.333 c0.00,11.733, 9.60,21.333, 21.333,21.333
	S 224.00,417.067, 224.00,405.333z M 320.00,405.333l0.00-96.00 c0.00-11.733-9.60-21.333-21.333-21.333s-21.333,9.60-21.333,21.333L 277.333,405.333 c0.00,11.733, 9.60,21.333, 21.333,21.333S 320.00,417.067, 320.00,405.333z M 108.80,138.667l 251.733,0.00 c 13.013,0.00, 23.467-10.453, 23.467-23.467l0.00-70.40 
	c0.00-13.013-10.453-23.467-23.467-23.467L 108.80,21.333 C 95.787,21.333, 85.333,31.787, 85.333,44.80l0.00,70.40 C 85.333,128.213, 95.787,138.667, 108.80,138.667z" />
<glyph unicode="&#x44;" d="M 309.333,21.333l 83.20,0.00 c 13.013,0.00, 23.467,10.453, 23.467,23.467L 416.00,106.667 c0.00,11.733, 9.60,21.333, 21.333,21.333l 51.20,0.00 
	c 13.013,0.00, 23.467,10.453, 23.467,23.467L 512.00,360.533 C 512.00,373.547, 501.547,384.00, 488.533,384.00L 309.333,384.00 L 309.333,394.667 c0.00,23.573-19.093,42.667-42.667,42.667l-32.00,0.00 L 234.667,456.533 C 234.667,469.547, 224.213,480.00, 211.20,480.00L 98.133,480.00 
	C 85.12,480.00, 74.667,469.547, 74.667,456.533L 74.667,437.333 L 42.667,437.333 C 19.093,437.333,0.00,418.24,0.00,394.667l0.00-384.00 c0.00-23.573, 19.093-42.667, 42.667-42.667l 224.00,0.00 c 23.573,0.00, 42.667,19.093, 42.667,42.667L 309.333,21.333 z M 405.333,304.00c0.00,14.72, 11.947,26.667, 26.667,26.667
	s 26.667-11.947, 26.667-26.667S 446.72,277.333, 432.00,277.333S 405.333,289.28, 405.333,304.00z M 309.333,304.00c0.00,14.72, 11.947,26.667, 26.667,26.667s 26.667-11.947, 26.667-26.667S 350.72,277.333, 336.00,277.333
	S 309.333,289.28, 309.333,304.00z M 309.333,101.333c0.00,14.72, 11.947,26.667, 26.667,26.667s 26.667-11.947, 26.667-26.667S 350.72,74.667, 336.00,74.667S 309.333,86.613, 309.333,101.333z M 96.00,362.667l0.00-320.00 
	c0.00-11.733-9.60-21.333-21.333-21.333s-21.333,9.60-21.333,21.333L 53.333,362.667 c0.00,11.733, 9.60,21.333, 21.333,21.333S 96.00,374.40, 96.00,362.667z" />
<glyph unicode="&#x45;" d="M 96.00,53.333c0.00-23.573, 19.093-42.667, 42.667-42.667l 330.667,0.00 c 23.573,0.00, 42.667,19.093, 42.667,42.667L 512.00,298.667 c0.00,23.573-19.093,42.667-42.667,42.667L 341.333,341.333 
	c-11.733,0.00-21.333,9.60-21.333,21.333s 9.60,21.333, 21.333,21.333l 144.00,0.00 C 500.053,384.00, 512.00,395.947, 512.00,410.667S 500.053,437.333, 485.333,437.333L 309.333,437.333 c-19.947,0.00-37.984-13.547-42.667-32.00l-21.227-64.00l-43.627,0.00 
	c-14.293,0.00-26.987-5.653-36.16-14.72l-53.973-54.187C 101.973,262.827, 96.00,249.387, 96.00,234.667l0.00-32.00 L 53.333,202.667 l0.00,5.333 C 53.333,222.72, 41.387,234.667, 26.667,234.667S0.00,222.72,0.00,208.00l0.00-138.667 
	C0.00,54.613, 11.947,42.667, 26.667,42.667S 53.333,54.613, 53.333,69.333L 53.333,74.667 l 42.667,0.00 L 96.00,53.333 z M 236.80,170.667l 198.40,0.00 c 13.013,0.00, 23.467-10.453, 23.467-23.467l0.00-59.733 c0.00-13.013-10.453-23.467-23.467-23.467L 236.80,64.00 
	c-13.013,0.00-23.467,10.453-23.467,23.467l0.00,59.733 C 213.333,160.213, 223.787,170.667, 236.80,170.667z M 213.333,261.333c0.00,14.72, 11.947,26.667, 26.667,26.667s 26.667-11.947, 26.667-26.667S 254.72,234.667, 240.00,234.667
	S 213.333,246.613, 213.333,261.333z" />
<glyph unicode="&#x46;" d="M0.00,186.667C0.00,65.92, 97.92-32.00, 218.667-32.00C 339.413-32.00, 437.333,65.92, 437.333,186.667
	c0.00,41.28-17.707,93.76-32.00,116.053c-12.373,19.093-16.651,31.36-16.651,49.28c0.00,37.333, 39.36,74.667, 80.651,74.667l 5.333,0.00 C 489.387,426.667, 501.333,438.613, 501.333,453.333S 489.387,480.00, 474.667,480.00L 469.333,480.00 
	c-65.60,0.00-121.707-34.987-135.04-106.667C 306.976,394.027, 264.533,405.333, 218.667,405.333C 97.92,405.333,0.00,307.413,0.00,186.667z M 192.00,186.667c0.00,14.72, 11.947,26.667, 26.667,26.667s 26.667-11.947, 26.667-26.667
	S 233.387,160.00, 218.667,160.00S 192.00,171.947, 192.00,186.667z M 53.333,186.667C 53.333,213.227, 74.773,234.667, 101.333,234.667s 48.00-21.44, 48.00-48.00S 127.893,138.667, 101.333,138.667S 53.333,160.107, 53.333,186.667z M 288.00,186.667
	c0.00,26.56, 21.44,48.00, 48.00,48.00s 48.00-21.44, 48.00-48.00S 362.56,138.667, 336.00,138.667S 288.00,160.107, 288.00,186.667z M 170.667,69.333c0.00,26.56, 21.44,48.00, 48.00,48.00s 48.00-21.44, 48.00-48.00
	S 245.227,21.333, 218.667,21.333S 170.667,42.773, 170.667,69.333z M 170.667,304.00c0.00,26.56, 21.44,48.00, 48.00,48.00s 48.00-21.44, 48.00-48.00S 245.227,256.00, 218.667,256.00S 170.667,277.44, 170.667,304.00z" />
<glyph unicode="&#x47;" d="M0.00,10.667c0.00-23.573, 19.093-42.667, 42.667-42.667l 426.667,0.00 c 23.573,0.00, 42.667,19.093, 42.667,42.667L 512.00,309.333 c0.00,23.573-19.093,42.667-42.667,42.667L 282.347,352.00 
	l 83.307,83.307c 10.251,10.24, 10.251,26.773,0.00,37.013c-10.24,10.24-26.773,10.24-37.003,0.00L 208.213,352.00l-0.533,0.00 l-88.32,88.32c-10.24,10.24-26.773,10.24-37.013,0.00
	c-10.24-10.24-10.24-26.773,0.00-37.013l 51.20-51.307L 42.667,352.00 c-23.573,0.00-42.667-19.093-42.667-42.667L0.00,10.667 z M 76.80,298.667l 262.40,0.00 c 13.013,0.00, 23.467-10.453, 23.467-23.467l0.00-230.40 
	c0.00-13.013-10.453-23.467-23.467-23.467L 76.80,21.333 C 63.787,21.333, 53.333,31.787, 53.333,44.80L 53.333,275.20 C 53.333,288.213, 63.787,298.667, 76.80,298.667z M 405.333,272.00c0.00,14.72, 11.947,26.667, 26.667,26.667
	s 26.667-11.947, 26.667-26.667S 446.72,245.333, 432.00,245.333S 405.333,257.28, 405.333,272.00z M 405.333,186.667c0.00,14.72, 11.947,26.667, 26.667,26.667s 26.667-11.947, 26.667-26.667S 446.72,160.00, 432.00,160.00
	S 405.333,171.947, 405.333,186.667z" />
<glyph unicode="&#x48;" d="M 346.667,330.667c-38.293,0.00-69.333-31.04-69.333-69.333s 31.04-69.333, 69.333-69.333s 69.333,31.04, 69.333,69.333
	S 384.96,330.667, 346.667,330.667z M 405.333,74.667l0.00-26.667 c0.00-14.72, 11.947-26.667, 26.667-26.667s 26.667,11.947, 26.667,26.667L 458.667,74.667 l 10.667,0.00 c 23.573,0.00, 42.667,19.093, 42.667,42.667L 512.00,261.333 C 512.00,352.64, 437.984,426.667, 346.667,426.667
	c-48.107,0.00-91.413-20.587-121.60-53.333L 42.667,373.333 c-23.573,0.00-42.667-19.093-42.667-42.667l0.00-213.333 c0.00-23.573, 19.093-42.667, 42.667-42.667l 10.667,0.00 l0.00-26.667 C 53.333,33.28, 65.28,21.333, 80.00,21.333s 26.667,11.947, 26.667,26.667L 106.667,74.667 L 405.333,74.667 z
	 M 53.333,293.333C 53.333,308.053, 65.28,320.00, 80.00,320.00s 26.667-11.947, 26.667-26.667S 94.72,266.667, 80.00,266.667S 53.333,278.613, 53.333,293.333z M 346.667,373.333C 408.533,373.333, 458.667,323.20, 458.667,261.333
	S 408.533,149.333, 346.667,149.333S 234.667,199.467, 234.667,261.333S 284.80,373.333, 346.667,373.333z" />
<glyph unicode="&#x49;" d="M 156.672,103.264c 8.224-22.496, 32.853-34.123, 55.147-25.92l 107.637,37.003l 15.253-63.669
	c 3.296-15.349, 25.163-29.333, 41.259-29.333l 61.333,0.00 c 11.733,0.00, 21.333-9.60, 21.333-21.344l0.00-5.333 c0.00-14.731, 11.957-26.667, 26.667-26.667c 14.731,0.00, 26.667,11.936, 26.667,26.667l0.00,53.344 l0.00,53.333 
	c0.00,14.709-11.936,26.667-26.667,26.667c-14.709,0.00-26.667-11.957-26.667-26.667l0.00-5.333 c0.00-11.733-9.60-21.333-21.333-21.333l-32.00,0.00 c-11.733,0.00-18.453,9.92-21.333,21.333l-9.504,37.227l 109.227,37.557
	c 22.293,8.213, 33.813,33.163, 25.707,55.787l-80.853,224.864c-8.107,22.507-32.747,34.144-55.04,25.92L 101.632,383.925c-22.283-8.224-33.803-33.173-25.685-55.797
	l 18.347-51.093l-40.309-14.827l-1.931,5.12c-5.013,14.08-20.48,21.333-34.347,16.213c-13.984-5.12-21.12-20.693-16.107-34.891L 49.387,115.84
	c 5.013-14.187, 20.48-21.44, 34.443-16.309c 13.877,5.227, 21.109,20.789, 15.989,34.88L 96.00,144.011l 15.989,8.971l 19.627,5.024L 156.672,103.264z M 341.312,389.355
	c0.00,14.72, 11.957,26.667, 26.656,26.667c 14.731,0.00, 26.667-11.957, 26.667-26.667s-11.936-26.667-26.667-26.667C 353.269,362.688, 341.312,374.645, 341.312,389.355z" />
<glyph unicode="&#x4a;" d="M 126.72,117.333l 135.573-132.48C 266.133-18.987, 271.467-21.333, 277.333-21.333c 11.733,0.00, 21.333,9.504, 21.333,21.12L 298.667,448.213 
	C 298.667,459.84, 289.067,469.333, 277.333,469.333c-5.984,0.00-11.413-2.453-15.264-6.40L 126.827,330.667L 42.667,330.667 c-23.573,0.00-42.667-19.093-42.667-42.667l0.00-128.00 c0.00-23.573, 19.093-42.667, 42.667-42.667L 126.72,117.333 z M 418.667,354.987
	c-10.24-10.133-10.24-26.667,0.00-36.907c 25.387-25.493, 41.163-60.587, 41.163-99.413c0.00-38.837-15.883-73.92-41.269-99.413c-10.251-10.24-10.251-26.773,0.00-36.907
	c 10.123-10.24, 26.667-10.24, 36.907,0.00C 490.347,117.227, 512.00,165.44, 512.00,218.667c0.00,53.12-21.44,101.227-56.213,136.107l-0.224,0.213
	C 445.333,365.227, 428.907,365.227, 418.667,354.987z M 396.587,141.333c 19.733,19.829, 31.893,47.147, 31.893,77.333s-12.171,57.493-31.893,77.333
	c-10.24,10.24-26.773,10.24-36.907,0.00c-10.24-10.133-10.24-26.667,0.00-36.907c 10.24-10.347, 16.64-24.64, 16.64-40.427c0.00-15.787-6.40-30.08-16.64-40.427
	c-10.24-10.24-10.24-26.667,0.00-36.907C 369.813,131.20, 386.347,131.093, 396.587,141.333z" />
<glyph unicode="&#x4b;" d="M 160.00,160.747C 147.20,167.04, 132.693,170.667, 117.333,170.667c-53.013,0.00-96.00-42.987-96.00-96.00c0.00-53.024, 42.987-96.00, 96.00-96.00
	s 96.00,42.976, 96.00,96.00L 213.333,288.00 c0.00,11.733, 9.60,21.333, 21.333,21.333l 181.333,0.00 c 11.733,0.00, 21.333-9.60, 21.333-21.333l0.00-127.253 C 424.533,167.04, 410.016,170.667, 394.667,170.667c-53.024,0.00-96.00-42.987-96.00-96.00c0.00-53.024, 42.976-96.00, 96.00-96.00
	s 96.00,42.976, 96.00,96.00L 490.667,435.20 C 490.667,448.213, 480.213,458.667, 467.20,458.667L 183.467,458.667 C 170.453,458.667, 160.00,448.213, 160.00,435.20L 160.00,160.747 z" />
<glyph unicode="&#x4c;" d="M 28.448,223.371c-21.227-9.92-30.40-35.083-20.469-56.309
	c 9.92-21.227, 35.093-30.293, 56.213-20.48l 95.893,44.683l0.00-127.253 c0.00-11.733-9.60-21.333-21.333-21.333l-58.667,0.00 c-14.72,0.00-26.667-11.947-26.667-26.667s 11.947-26.667, 26.667-26.667l 213.333,0.00 
	c 14.72,0.00, 26.667,11.947, 26.667,26.667s-11.947,26.667-26.667,26.667l-58.667,0.00 c-11.733,0.00-21.333,9.60-21.333,21.333l0.00,152.107 l 36.053,16.853c 33.173-30.40, 82.987-39.68, 126.613-19.733l 69.984,31.883
	c 57.163,26.133, 81.92,92.80, 55.253,148.907c-26.667,56.00-94.613,80.224-151.893,54.08l-69.984-31.893c-43.189-19.829-67.947-62.613-65.92-106.56L 28.448,223.371z
	 M 384.075,378.688c0.00,14.72, 11.947,26.667, 26.667,26.667s 26.667-11.947, 26.667-26.667s-11.947-26.667-26.667-26.667S 384.075,363.968, 384.075,378.688z" />
<glyph unicode="&#x4d;" d="M 96.00,101.333c0.00-14.731, 11.947-26.667, 26.667-26.667s 26.667,11.936, 26.667,26.667
	c0.00,14.709-11.947,26.667-26.667,26.667S 96.00,116.043, 96.00,101.333z M 358.187,352.00L 94.187,467.829c-11.84,4.48-24.853-1.387-28.907-13.12c-4.16-11.733, 2.133-24.96, 13.973-29.44
	L 246.293,352.00L 42.667,352.00 c-23.573,0.00-42.667-19.093-42.667-42.667l0.00-288.00 c0.00-23.584, 19.093-42.667, 42.667-42.667l 384.00,0.00 c 23.573,0.00, 42.667,19.083, 42.667,42.667L 469.333,170.667 l 19.20,0.00 c 13.013,0.00, 23.467,10.453, 23.467,23.456l0.00,59.733 
	c0.00,13.013-10.453,23.467-23.467,23.467L 469.333,277.323 l0.00,32.00 c0.00,23.573-19.093,42.667-42.667,42.667L 358.187,351.989 z M 76.80,298.667l 315.733,0.00 c 13.013,0.00, 23.467-10.453, 23.467-23.467l0.00-38.40 c0.00-13.013-10.453-23.467-23.467-23.467L 181.333,213.333 
	l-32.00,32.00l-32.00-32.00L 76.80,213.333 C 63.787,213.333, 53.333,223.776, 53.333,236.80l0.00,38.40 C 53.333,288.213, 63.787,298.667, 76.80,298.667z M 362.667,144.00c0.00,14.709, 11.947,26.667, 26.667,26.667s 26.667-11.957, 26.667-26.667
	c0.00-14.731-11.947-26.667-26.667-26.667S 362.667,129.269, 362.667,144.00z M 53.333,101.333c0.00,38.293, 31.04,69.333, 69.333,69.333s 69.333-31.04, 69.333-69.333S 160.96,32.00, 122.667,32.00S 53.333,63.04, 53.333,101.333z" />
<glyph unicode="&#x4e;" d="M 224.00,357.333c0.00-14.72, 11.947-26.667, 26.667-26.667s 26.667,11.947, 26.667,26.667S 265.387,384.00, 250.667,384.00
	S 224.00,372.053, 224.00,357.333z M 224.00,133.333c0.00,14.72, 11.947,26.667, 26.667,26.667s 26.667-11.947, 26.667-26.667S 265.387,106.667, 250.667,106.667S 224.00,118.613, 224.00,133.333z M 250.667,202.667
	c-38.293,0.00-69.333-31.04-69.333-69.333s 31.04-69.333, 69.333-69.333s 69.333,31.04, 69.333,69.333S 288.96,202.667, 250.667,202.667z M 53.333,10.667c0.00-23.573, 19.093-42.667, 42.667-42.667l 309.333,0.00 c 23.573,0.00, 42.667,19.093, 42.667,42.667L 448.00,437.333 
	c0.00,23.573-19.093,42.667-42.667,42.667L 96.00,480.00 C 72.427,480.00, 53.333,460.907, 53.333,437.333L 53.333,10.667 z M 205.867,236.053c 12.587,5.973, 21.333,18.987, 21.333,33.92c0.00,11.52-5.227,21.76-13.44,28.587
	C 194.24,310.827, 181.333,332.587, 181.333,357.333C 181.333,395.627, 212.373,426.667, 250.667,426.667S 320.00,395.627, 320.00,357.333c0.00-23.68-11.947-44.693-30.08-57.173c-9.493-6.72-15.573-17.813-15.573-30.293
	c0.00-15.04, 8.853-28.053, 21.653-33.92l 0.853-0.427C 335.68,217.92, 362.667,178.773, 362.667,133.333C 362.667,71.467, 312.533,21.333, 250.667,21.333S 138.667,71.467, 138.667,133.333
	C 138.667,179.317, 166.293,218.773, 205.867,236.053z" />
<glyph unicode="&#x4f;" d="M0.00,26.667C0.00,11.947, 11.947,0.00, 26.667,0.00c 12.907,0.00, 23.68,9.163, 26.133,21.333L 53.333,21.333 c0.00,11.733, 9.60,21.333, 21.333,21.333
	s 21.333-9.60, 21.333-21.333l0.00-10.667 c0.00-23.573, 19.093-42.667, 42.667-42.667l 42.667,0.00 c 23.573,0.00, 42.667,19.093, 42.667,42.667L 224.00,170.667 c0.00,23.573-19.093,42.667-42.667,42.667l-42.667,0.00 c-23.573,0.00-42.667-19.093-42.667-42.667l0.00-10.667 c0.00-11.733-9.60-21.333-21.333-21.333s-21.333,9.60-21.333,21.333l0.00,64.00 
	C 53.333,335.893, 144.107,426.667, 256.00,426.667s 202.667-90.773, 202.667-202.667l0.00-64.00 c0.00-11.733-9.60-21.333-21.333-21.333s-21.333,9.60-21.333,21.333l0.00,10.667 c0.00,23.573-19.093,42.667-42.667,42.667l-42.667,0.00 c-23.573,0.00-42.667-19.093-42.667-42.667l0.00-160.00 
	c0.00-23.573, 19.093-42.667, 42.667-42.667l 42.667,0.00 c 23.573,0.00, 42.667,19.093, 42.667,42.667l0.00,10.667 c0.00,11.733, 9.60,21.333, 21.333,21.333s 21.333-9.60, 21.333-21.333l 0.533,0.00 c 2.443-12.171, 13.227-21.333, 26.133-21.333c 14.72,0.00, 26.667,11.947, 26.667,26.667L 512.00,224.00 
	C 512.00,365.44, 397.44,480.00, 256.00,480.00S0.00,365.44,0.00,224.00L0.00,26.667 z" />
<glyph unicode="&#x50;" d="M 341.333,224.00c0.00-17.707, 14.293-32.00, 32.00-32.00s 32.00,14.293, 32.00,32.00s-14.293,32.00-32.00,32.00S 341.333,241.707, 341.333,224.00z M 106.667,224.00
	c0.00-17.707, 14.293-32.00, 32.00-32.00s 32.00,14.293, 32.00,32.00s-14.293,32.00-32.00,32.00S 106.667,241.707, 106.667,224.00z M 302.293,245.333l-92.587,0.00 c 2.347-6.72, 3.627-13.867, 3.627-21.333s-1.28-14.613-3.627-21.333l 92.587,0.00 
	C 299.947,209.387, 298.667,216.533, 298.667,224.00S 299.947,238.613, 302.293,245.333z M0.00,74.667c0.00-23.573, 19.093-42.667, 42.667-42.667l 426.667,0.00 c 23.573,0.00, 42.667,19.093, 42.667,42.667L 512.00,373.333 c0.00,23.573-19.093,42.667-42.667,42.667L 42.667,416.00 
	c-23.573,0.00-42.667-19.093-42.667-42.667L0.00,74.667 z M 138.667,149.333c-41.28,0.00-74.667,33.387-74.667,74.667s 33.387,74.667, 74.667,74.667l 234.667,0.00 c 41.28,0.00, 74.667-33.387, 74.667-74.667s-33.387-74.667-74.667-74.667L 138.667,149.333 z" />
<glyph unicode="&#x51;" d="M 192.00,250.667c0.00-22.827, 13.013-42.56, 32.00-52.267L 224.00,42.667 c0.00-11.733-9.60-21.333-21.333-21.333l-58.667,0.00 
	c-14.72,0.00-26.667-11.947-26.667-26.667s 11.947-26.667, 26.667-26.667l 213.333,0.00 c 14.72,0.00, 26.667,11.947, 26.667,26.667S 372.053,21.333, 357.333,21.333L 298.667,21.333 c-11.733,0.00-21.333,9.60-21.333,21.333L 277.333,198.40 
	c 18.976,9.707, 32.00,29.44, 32.00,52.267c0.00,32.427-26.24,58.667-58.667,58.667S 192.00,283.093, 192.00,250.667z M 106.667,248.533c0.00-26.667, 7.147-51.627, 19.52-73.173l 1.60-2.443
	c 4.363-8.736, 13.333-14.72, 23.68-14.72c 14.72,0.00, 26.667,12.053, 26.667,26.976c0.00,5.12-1.397,9.931-3.84,13.984l-2.891,4.907
	C 164.16,217.28, 160.00,232.427, 160.00,248.533c0.00,50.56, 40.651,92.80, 90.667,92.80s 90.667-42.24, 90.667-92.80c0.00-16.107-4.171-31.253-11.413-44.48l-2.88-4.907
	c-2.453-4.053-3.84-8.853-3.84-13.984c0.00-14.923, 11.947-26.976, 26.667-26.976c 10.347,0.00, 19.307,5.984, 23.68,14.72l 1.60,2.443
	C 387.52,196.907, 394.667,221.867, 394.667,248.533C 394.667,328.853, 330.24,394.667, 250.667,394.667S 106.667,328.853, 106.667,248.533z M 21.333,248.533c0.00-52.16, 17.067-100.256, 45.984-138.987l 1.92-2.667
	C 74.016,100.267, 81.92,96.00, 90.667,96.00c 14.72,0.00, 26.667,12.053, 26.667,26.88c0.00,6.187-2.016,11.957-5.547,16.544l-2.027,2.773C 87.68,171.829, 74.667,208.651, 74.667,248.533
	C 74.667,346.667, 153.493,426.667, 250.667,426.667C 347.829,426.667, 426.667,346.667, 426.667,248.533c0.00-39.883-13.024-76.693-35.093-106.347l-2.027-2.773C 386.016,134.837, 384.00,129.067, 384.00,122.88
	c0.00-14.827, 11.947-26.88, 26.667-26.88c 8.736,0.00, 16.651,4.267, 21.44,10.88l 1.92,2.667C 462.933,148.267, 480.00,196.373, 480.00,248.533C 480.00,376.427, 377.28,480.00, 250.667,480.00
	S 21.333,376.427, 21.333,248.533z" />
<glyph unicode="&#x52;" d="M 285.984,301.653l-32.544-32.32L 123.093,399.68c-3.84,3.84-9.067,6.187-14.933,6.187
	c-9.493,0.00-17.60-6.293-20.267-14.827L 86.72,387.20C 78.933,362.667, 74.667,336.533, 74.667,309.333c0.00-63.467, 23.04-121.504, 61.227-166.187l-4.053-5.333c-18.773-18.667-29.547-42.347-32.213-66.773
	c-35.947-9.397-64.533-36.064-75.84-70.40c0.00,0.00-2.453-6.507-2.453-11.317c0.00-11.733, 9.813-21.333, 21.867-21.333l 169.60,0.00 c 12.053,0.00, 21.867,9.60, 21.867,21.333
	c0.00,6.72-2.987,12.80-2.987,12.80c-11.947,34.443-41.28,60.907-77.867,69.547c 2.347,10.453, 7.573,20.373, 15.68,28.491l 4.907,6.40C 217.60,73.163, 271.787,53.333, 330.667,53.333
	c 26.773,0.00, 52.587,4.053, 76.80,11.733c 1.173,0.32, 5.44,2.133, 5.44,2.133c 8.117,2.987, 13.973,10.784, 13.973,19.947c0.00,5.984-2.443,11.413-6.496,15.253L 417.067,105.60
	L 290.56,232.213l 32.416,32.427c 10.251,10.24, 10.251,26.773,0.00,37.013C 312.747,311.893, 296.213,311.893, 285.984,301.653z M 362.667,282.667c0.00-14.72, 11.947-26.667, 26.667-26.667
	s 26.667,11.947, 26.667,26.667L 415.893,288.00c-1.28,26.88-12.171,53.333-32.747,73.813C 362.667,382.40, 336.213,393.28, 309.333,394.56L 304.00,394.667C 289.28,394.667, 277.333,382.72, 277.333,368.00
	s 11.947-26.667, 26.667-26.667c 1.813,0.00, 5.333-0.213, 5.333-0.213c 13.227-1.28, 26.016-6.827, 36.171-16.96c 10.123-10.133, 15.669-22.933, 16.853-36.16
	C 362.357,288.00, 362.667,284.48, 362.667,282.667z M 448.00,282.667c0.00-14.72, 11.947-26.667, 26.667-26.667s 26.667,11.947, 26.667,26.667L 501.227,288.00c-1.28,48.747-20.48,97.067-57.707,134.187
	C 406.40,459.413, 358.08,478.613, 309.333,479.893L 304.00,480.00C 289.28,480.00, 277.333,468.053, 277.333,453.333S 289.28,426.667, 304.00,426.667L 309.333,426.56c 35.093-1.28, 69.76-15.36, 96.533-42.027
	c 26.667-26.773, 40.747-61.44, 42.027-96.533L 448.00,282.667z" />
<glyph unicode="&#x53;" d="M 74.667,10.667c0.00-23.573, 19.093-42.667, 42.667-42.667l 266.667,0.00 c 23.573,0.00, 42.667,19.093, 42.667,42.667L 426.667,437.333 c0.00,23.573-19.093,42.667-42.667,42.667L 117.333,480.00 
	C 93.76,480.00, 74.667,460.907, 74.667,437.333L 74.667,10.667 z M 151.467,426.667l 198.40,0.00 C 362.88,426.667, 373.333,416.213, 373.333,403.20l0.00-70.40 c0.00-13.013-10.453-23.467-23.467-23.467L 151.467,309.333 c-13.013,0.00-23.467,10.453-23.467,23.467L 128.00,403.20 
	C 128.00,416.213, 138.453,426.667, 151.467,426.667z M 128.00,240.00c0.00,14.72, 11.947,26.667, 26.667,26.667s 26.667-11.947, 26.667-26.667S 169.387,213.333, 154.667,213.333S 128.00,225.28, 128.00,240.00z M 224.00,240.00
	c0.00,14.72, 11.947,26.667, 26.667,26.667s 26.667-11.947, 26.667-26.667S 265.387,213.333, 250.667,213.333S 224.00,225.28, 224.00,240.00z M 320.00,240.00c0.00,14.72, 11.947,26.667, 26.667,26.667s 26.667-11.947, 26.667-26.667
	S 361.387,213.333, 346.667,213.333S 320.00,225.28, 320.00,240.00z M 128.00,144.00c0.00,14.72, 11.947,26.667, 26.667,26.667s 26.667-11.947, 26.667-26.667S 169.387,117.333, 154.667,117.333S 128.00,129.28, 128.00,144.00z
	 M 224.00,144.00c0.00,14.72, 11.947,26.667, 26.667,26.667s 26.667-11.947, 26.667-26.667S 265.387,117.333, 250.667,117.333S 224.00,129.28, 224.00,144.00z M 320.00,144.00c0.00,14.72, 11.947,26.667, 26.667,26.667
	s 26.667-11.947, 26.667-26.667S 361.387,117.333, 346.667,117.333S 320.00,129.28, 320.00,144.00z M 128.00,48.00c0.00,14.72, 11.947,26.667, 26.667,26.667s 26.667-11.947, 26.667-26.667S 169.387,21.333, 154.667,21.333
	S 128.00,33.28, 128.00,48.00z M 224.00,48.00c0.00,14.72, 11.947,26.667, 26.667,26.667s 26.667-11.947, 26.667-26.667S 265.387,21.333, 250.667,21.333S 224.00,33.28, 224.00,48.00z M 320.00,48.00
	c0.00,14.72, 11.947,26.667, 26.667,26.667s 26.667-11.947, 26.667-26.667S 361.387,21.333, 346.667,21.333S 320.00,33.28, 320.00,48.00z" />
<glyph unicode="&#x54;" d="M 96.00-32.00l 256.00,0.00 c 14.72,0.00, 28.171,5.984, 37.76,15.68l 54.187,53.973
	C 453.024,46.837, 458.667,59.52, 458.667,73.813L 458.667,437.333 c0.00,23.573-19.093,42.667-42.667,42.667L 96.00,480.00 C 72.427,480.00, 53.333,460.907, 53.333,437.333l0.00-426.667 C 53.333-12.907, 72.427-32.00, 96.00-32.00z M 130.133,426.667l 251.733,0.00 
	C 394.88,426.667, 405.333,416.213, 405.333,403.20l0.00-113.067 c0.00-13.013-10.453-23.467-23.467-23.467L 130.133,266.667 c-13.013,0.00-23.467,10.453-23.467,23.467L 106.667,403.20 C 106.667,416.213, 117.12,426.667, 130.133,426.667z M 192.00,180.267L 192.00,149.333 l 30.933,0.00 
	c 12.373,0.00, 22.40-9.60, 22.40-21.333s-10.027-21.333-22.40-21.333L 192.00,106.667 l0.00-30.933 c0.00-12.373-9.60-22.40-21.333-22.40s-21.333,10.016-21.333,22.40L 149.333,106.667 l-30.933,0.00 C 106.027,106.667, 96.00,116.267, 96.00,128.00s 10.027,21.333, 22.40,21.333L 149.333,149.333 l0.00,30.933 
	c0.00,12.373, 9.60,22.40, 21.333,22.40S 192.00,192.651, 192.00,180.267z M 352.00,165.333c0.00,14.72, 11.947,26.667, 26.667,26.667s 26.667-11.947, 26.667-26.667S 393.387,138.667, 378.667,138.667S 352.00,150.613, 352.00,165.333z
	 M 298.667,101.333c0.00,14.72, 11.947,26.667, 26.667,26.667s 26.667-11.947, 26.667-26.667S 340.053,74.667, 325.333,74.667S 298.667,86.613, 298.667,101.333z" />
<glyph unicode="&#x55;" d="M 213.333,367.701c-30.613,29.973-101.973,42.027-142.187-1.067C 31.787,324.608,0.00,223.285,0.00,127.701
	c0.00-115.317, 96.64-131.317, 149.333-74.667c 30.507,32.853, 33.387,37.984, 53.333,64.00l 106.667,0.00 c 20.053-26.016, 22.827-31.147, 53.333-64.00c 52.683-56.651, 149.333-40.651, 149.333,74.667
	c0.00,95.584-31.787,196.907-71.147,238.933c-40.213,43.093-111.467,31.04-142.187,1.067c-11.84-11.52-42.667-16.00-42.667-16.00S 225.173,356.181, 213.333,367.701z M 170.667,297.301l0.00-30.923 
	l 30.933,0.00 c 12.373,0.00, 22.40-9.60, 22.40-21.344c0.00-11.733-10.027-21.333-22.40-21.333L 170.667,223.701 l0.00-30.923 c0.00-12.384-9.60-22.411-21.333-22.411s-21.333,10.016-21.333,22.411l0.00,30.923 L 97.067,223.701 
	c-12.373,0.00-22.40,9.60-22.40,21.333c0.00,11.744, 10.027,21.344, 22.40,21.344L 128.00,266.379 l0.00,30.923 c0.00,12.373, 9.60,22.40, 21.333,22.40S 170.667,309.675, 170.667,297.301z M 362.667,282.368
	c0.00,14.72, 11.947,26.667, 26.667,26.667s 26.667-11.947, 26.667-26.667s-11.947-26.667-26.667-26.667S 362.667,267.648, 362.667,282.368z M 309.333,218.368c0.00,14.731, 11.947,26.667, 26.667,26.667
	s 26.667-11.936, 26.667-26.667c0.00-14.709-11.947-26.667-26.667-26.667S 309.333,203.659, 309.333,218.368z" />
<glyph unicode="&#x56;" d="M 224.00,218.667c0.00,14.72, 11.947,26.667, 26.667,26.667s 26.667-11.947, 26.667-26.667S 265.387,192.00, 250.667,192.00
	S 224.00,203.947, 224.00,218.667z M 250.667,288.00c-38.293,0.00-69.333-31.04-69.333-69.333s 31.04-69.333, 69.333-69.333s 69.333,31.04, 69.333,69.333S 288.96,288.00, 250.667,288.00z M 71.04,167.68
	c 4.053-14.40, 9.813-28.053, 17.067-40.736l-32.00-34.987c-9.163-9.173-9.163-24.00,0.00-33.173l 34.667-34.667c 9.173-9.163, 24.00-9.163, 33.173,0.00l 34.987,32.00
	c 12.683-7.253, 26.347-13.013, 40.736-17.067L 202.667-8.533c0.00-13.013, 10.453-23.467, 23.467-23.467l 49.067,0.00 c 13.013,0.00, 23.467,10.453, 23.467,23.467l 2.976,47.573
	c 14.411,4.053, 28.064,9.813, 40.747,17.067l 34.987-32.00c 9.173-9.163, 24.00-9.163, 33.173,0.00l 34.667,34.667c 9.163,9.173, 9.163,24.00,0.00,33.173l-32.00,34.987
	c 7.253,12.683, 13.013,26.347, 17.067,40.736L 477.867,170.667c 13.013,0.00, 23.467,10.453, 23.467,23.467l0.00,49.067 c0.00,13.013-10.453,23.467-23.467,23.467l-47.573,2.987
	c-4.053,14.40-9.813,28.053-17.067,40.747l 32.00,34.987c 9.163,9.173, 9.163,24.00,0.00,33.173l-34.667,34.667c-9.173,9.173-24.00,9.173-33.173,0.00l-34.987-32.00
	c-12.683,7.253-26.347,13.013-40.747,17.067L 298.667,445.867C 298.667,458.88, 288.213,469.333, 275.20,469.333l-49.067,0.00 C 213.12,469.333, 202.667,458.88, 202.667,445.867l-2.987-47.573
	c-14.40-4.053-28.053-9.813-40.736-17.067l-34.987,32.00c-9.173,9.173-24.00,9.173-33.173,0.00L 56.107,378.56c-9.163-9.173-9.163-24.00,0.00-33.173l 32.00-34.987
	c-7.253-12.693-13.013-26.347-17.067-40.747L 23.467,266.667C 10.453,266.667,0.00,256.213,0.00,243.20l0.00-49.067 C0.00,181.12, 10.453,170.667, 23.467,170.667L 71.04,167.68z M 250.667,330.667
	C 312.533,330.667, 362.667,280.533, 362.667,218.667S 312.533,106.667, 250.667,106.667S 138.667,156.80, 138.667,218.667S 188.80,330.667, 250.667,330.667z" />
<glyph unicode="&#x57;" d="M 96.107,353.493L 96.107,352.00 c 3.413-93.867, 20.907-177.813, 28.907-186.016
	c 18.56-24.747, 76.053-65.504, 108.48-85.984c 8.00-5.12, 14.827-6.08, 22.507-6.293c 7.68,0.213, 14.496,1.493, 22.496,6.293
	c 33.077,19.52, 91.317,61.227, 109.771,85.984C 396.373,174.187, 412.587,258.133, 416.00,352.00l 0.107,1.493c0.00,8.64-5.547,16.107-13.227,18.88
	C 362.667,386.347, 303.787,390.08, 256.107,390.08c-47.787,0.00-106.667-3.733-146.773-17.707C 101.643,369.60, 96.107,362.133, 96.107,353.493z M0.00,415.04l 0.107-2.347
	C 5.547,262.507, 29.643,130.453, 42.667,117.333c 29.867-39.691, 125.333-101.333, 176.96-135.04c 12.267-8.00, 24.00-13.984, 36.373-14.293c 12.373,0.309, 24.107,6.293, 36.373,14.293
	C 344.00,16.00, 439.467,77.643, 469.333,117.333c 13.013,13.12, 37.12,145.173, 42.56,295.36L 512.00,415.04c0.00,13.867-8.96,25.92-21.333,30.293C 425.92,467.733, 333.013,480.00, 256.00,480.00
	C 178.976,480.00, 86.069,467.733, 21.333,445.333C 8.96,440.96,0.00,428.907,0.00,415.04z M 51.733,380.16c0.00,11.093, 7.147,20.587, 16.96,24.107C 119.893,421.973, 195.093,426.667, 256.00,426.667
	s 136.107-4.693, 187.317-22.40c 9.813-3.52, 16.96-13.013, 16.96-24.107L 460.16,378.347C 455.787,259.413, 435.20,151.467, 424.853,141.013
	c-23.691-31.36-99.211-81.696-140.053-108.363C 275.093,26.347, 265.813,21.547, 256.00,21.333c-9.813,0.213-19.093,5.013-28.80,11.317
	c-40.853,26.667-116.373,77.003-140.053,108.363C 76.80,151.467, 56.213,259.413, 51.829,378.347L 51.733,380.16z" />
<glyph unicode="&#x58;" d="M 128.00,10.667c0.00-23.573, 19.093-42.667, 42.667-42.667l 160.00,0.00 c 23.573,0.00, 42.667,19.093, 42.667,42.667l0.00,12.48 
	c0.00,10.016, 6.933,18.453, 16.309,20.683C 440.853,51.733, 480.00,96.00, 480.00,149.333c0.00,24.00-7.893,46.187-21.333,64.00l0.00,72.96 C 458.667,393.28, 365.547,480.00, 250.667,480.00S 42.667,393.28, 42.667,286.293L 42.667,213.333 
	c-13.44-17.813-21.333-40.00-21.333-64.00c0.00-53.333, 39.147-97.60, 90.347-105.504c 9.387-2.229, 16.32-10.667, 16.32-20.683L 128.00,10.667 z M 106.667,224.00c0.00,29.44, 23.893,53.333, 53.333,53.333s 53.333-23.893, 53.333-53.333
	s-23.893-53.333-53.333-53.333S 106.667,194.56, 106.667,224.00z M 288.00,224.00c0.00,29.44, 23.893,53.333, 53.333,53.333s 53.333-23.893, 53.333-53.333s-23.893-53.333-53.333-53.333S 288.00,194.56, 288.00,224.00z M 198.069,110.08l 37.557,37.547
	c 8.32,8.32, 21.76,8.32, 30.08,0.00l 37.547-37.547c 8.107-8.107, 8.107-21.227,0.00-29.333s-21.227-8.107-29.333,0.00l-23.253,23.253l-23.264-23.253
	c-8.096-8.107-21.216-8.107-29.333,0.00C 189.984,88.853, 189.984,101.984, 198.069,110.08z" />
<glyph unicode="&#x59;" d="M0.00,133.333C0.00,118.613, 11.947,106.667, 26.667,106.667S 53.333,118.613, 53.333,133.333l0.00,24.533 C 53.333,170.88, 63.787,181.333, 76.80,181.333
	l 9.387,0.00 C 85.653,176.427, 85.333,171.317, 85.333,166.08c0.00-20.80, 3.947-40.651, 11.093-58.891L 64.00,72.309C 57.92,65.813, 53.333,51.413, 53.333,42.667l0.00-48.00 C 53.333-20.053, 65.28-32.00, 80.00-32.00
	s 26.667,11.947, 26.667,26.667l0.00,32.651 c0.00,4.789, 1.387,9.163, 3.84,12.896l 16.32,17.397c 20.48-23.147, 43.84-46.731, 78.40-56.107
	c 0.747-0.331, 1.60-0.544, 2.453-0.747C 209.493,0.213, 211.413,0.00, 213.333,0.00c 11.733,0.00, 21.333,9.60, 21.333,21.333L 234.667,202.667 c0.00,11.733, 9.60,21.333, 21.333,21.333c 11.733,0.00, 21.333-9.60, 21.333-21.333l0.00-181.333 
	c0.00-11.733, 9.60-21.333, 21.333-21.333c 2.24,0.00, 4.48,0.309, 6.613,1.067l 2.667,0.747c 33.077,9.163, 56.96,32.853, 77.216,55.787l 16.331-17.397
	C 403.947,36.48, 405.333,32.107, 405.333,27.317L 405.333-5.333 c0.00-14.72, 11.947-26.667, 26.667-26.667s 26.667,11.947, 26.667,26.667L 458.667,42.667 c0.00,8.747-4.587,23.147-10.667,29.643l-32.427,34.891
	C 422.72,125.44, 426.667,145.28, 426.667,166.08c0.00,5.227-0.309,10.347-0.853,15.253l 9.387,0.00 c 13.013,0.00, 23.467-10.453, 23.467-23.467l0.00-24.533 c0.00-14.72, 11.947-26.667, 26.667-26.667
	s 26.667,11.947, 26.667,26.667L 512.00,181.333 c0.00,29.44-23.893,53.333-53.333,53.333l-50.24,0.00 c-4.80,8.96-10.24,17.60-15.776,26.24L 437.333,309.333c 6.08,6.507, 10.667,21.76, 10.667,32.00L 448.00,389.333 
	C 448.00,404.053, 436.053,416.00, 421.333,416.00S 394.667,404.053, 394.667,389.333l0.00-35.20 c0.00-4.80-1.387-9.173-3.829-12.907l-28.693-30.72C 350.187,333.76, 341.333,360.32, 341.333,394.667
	c0.00,39.787-27.20,73.173-64.00,82.667L 277.333,426.667 c0.00-11.733-9.60-21.333-21.333-21.333c-11.733,0.00-21.333,9.60-21.333,21.333L 234.667,477.333 C 197.867,467.84, 170.667,434.453, 170.667,394.667c0.00-34.24-8.96-60.693-20.907-83.947l-28.587,30.507
	C 118.72,344.96, 117.333,349.333, 117.333,354.133L 117.333,389.333 C 117.333,404.053, 105.387,416.00, 90.667,416.00S 64.00,404.053, 64.00,389.333L 64.00,341.333 c0.00-10.24, 4.587-25.493, 10.667-32.00l 44.48-48.213
	c-5.653-8.64-10.987-17.387-15.787-26.453L 53.333,234.667 c-29.44,0.00-53.333-23.893-53.333-53.333L0.00,133.333 z" />
<glyph unicode="&#x5a;" d="M 250.667,469.333C 235.947,469.333, 224.00,457.387, 224.00,442.667l0.00-39.147 c-14.827-2.133-29.12-6.08-42.667-11.413l-19.52,33.92
	c-7.467,12.693-23.68,17.067-36.48,9.707s-17.173-23.68-9.813-36.373l 19.627-34.027c-11.52-9.173-21.973-19.627-31.147-31.147l-34.027,19.627
	c-12.693,7.36-29.013,2.987-36.373-9.813s-2.987-29.013, 9.707-36.48l 33.92-19.627c-5.333-13.44-9.28-27.733-11.413-42.56L 26.667,245.333 C 11.947,245.333,0.00,233.387,0.00,218.667
	S 11.947,192.00, 26.667,192.00l 39.147,0.00 c 2.133-14.837, 6.08-29.12, 11.413-42.56l-33.92-19.627c-12.693-7.467-17.067-23.68-9.707-36.48s 23.68-17.163, 36.373-9.813l 34.027,19.627
	c 9.173-11.52, 19.627-21.984, 31.147-31.147l-19.627-34.016c-7.36-12.693-2.987-29.024, 9.813-36.373c 12.80-7.36, 29.013-2.987, 36.48,9.707L 181.333,45.227
	c 13.547-5.333, 27.84-9.28, 42.667-11.413l0.00-39.147 c0.00-14.72, 11.947-26.667, 26.667-26.667s 26.667,11.947, 26.667,26.667l0.00,39.147 c 14.837,2.133, 29.12,6.08, 42.667,11.413l 19.52-33.92
	c 7.456-12.693, 23.68-17.077, 36.48-9.707c 12.80,7.349, 17.163,23.68, 9.813,36.373l-19.627,34.016c 11.52,9.163, 21.984,19.627, 31.147,31.147l 34.016-19.627
	c 12.693-7.349, 29.024-2.987, 36.373,9.813c 7.36,12.80, 2.987,29.013-9.707,36.48l-33.92,19.627c 5.333,13.44, 9.28,27.733, 11.413,42.56l 39.147,0.00 
	c 14.72,0.00, 26.667,11.947, 26.667,26.667S 489.387,245.333, 474.667,245.333l-39.147,0.00 c-2.133,14.827-6.08,29.12-11.413,42.56l 33.92,19.627c 12.693,7.467, 17.077,23.68, 9.707,36.48
	c-7.349,12.80-23.68,17.173-36.373,9.813l-34.016-19.627c-9.163,11.52-19.627,21.973-31.147,31.147l 19.627,34.027c 7.349,12.693, 2.987,29.013-9.813,36.373
	s-29.024,2.987-36.48-9.707L 320.00,392.107c-13.547,5.333-27.829,9.28-42.667,11.413L 277.333,442.667 C 277.333,457.387, 265.387,469.333, 250.667,469.333z M 181.333,160.00c0.00,29.44, 23.893,53.333, 53.333,53.333s 53.333-23.893, 53.333-53.333
	s-23.893-53.333-53.333-53.333S 181.333,130.56, 181.333,160.00z M 288.00,261.333c0.00,20.587, 16.747,37.333, 37.333,37.333s 37.333-16.747, 37.333-37.333c0.00-20.587-16.747-37.333-37.333-37.333S 288.00,240.747, 288.00,261.333z
	 M 202.667,314.667c0.00,14.72, 11.947,26.667, 26.667,26.667s 26.667-11.947, 26.667-26.667S 244.053,288.00, 229.333,288.00S 202.667,299.947, 202.667,314.667z" />
<glyph unicode="&#x5b;" d="M0.00,224.00c0.00-141.44, 114.56-256.00, 256.00-256.00s 256.00,114.56, 256.00,256.00S 397.44,480.00, 256.00,480.00S0.00,365.44,0.00,224.00z
	 M 53.333,224.00c0.00,16.427, 1.92,32.427, 5.653,47.68L 106.667,224.00l-10.667-64.00l 42.667-42.667l0.00-58.56 C 87.04,95.467, 53.333,155.829, 53.333,224.00z M 209.387,421.227C 224.32,424.853, 239.893,426.667, 256.00,426.667
	c 17.813,0.00, 35.093-2.347, 51.52-6.613L 298.667,405.333l 10.667-10.667l 32.00,0.00 l 8.853,8.853c 7.456-3.947, 14.496-8.213, 21.333-13.013L 352.00,384.00l-21.333-21.333l 21.333-10.667l0.00-10.667 l-21.333,0.00 l0.00-21.333 c0.00,0.00, 14.72-10.667, 32.00-10.667
	c 16.96,0.00, 9.387,23.36, 21.333,32.00c 12.053,8.64, 26.667,6.72, 26.667,6.72l 6.933-1.813c 13.013-17.173, 23.349-36.373, 30.40-57.173L 448.00,288.00 c0.00,0.00-15.04,10.667-42.667,10.667s-53.333-10.667-53.333-10.667
	s-30.08-8.747-32.00-32.00c-3.317-40.00, 10.667-53.333, 10.667-53.333l 53.333-32.00l0.00-103.787 C 349.12,38.40, 304.533,21.333, 256.00,21.333c-22.933,0.00-44.907,3.733-65.493,10.773L 245.333,160.00l-10.667,53.333c0.00,0.00-42.347,53.333-64.00,53.333
	s-32.00-32.00-32.00-32.00l-21.333,42.667l 64.00,42.667l 32.00,85.333L 209.387,421.227z" />
<glyph unicode="&#x5c;" d="M0.00,218.667C0.00,80.213, 112.213-32.00, 250.667-32.00C 389.12-32.00, 501.333,80.213, 501.333,218.667
	C 501.333,357.12, 389.12,469.333, 250.667,469.333C 112.213,469.333,0.00,357.12,0.00,218.667z M 53.333,218.667c0.00,12.80, 1.173,25.28, 3.52,37.333l 51.20,0.00 C 107.093,245.44, 106.667,234.773, 106.667,224.00
	s 0.427-21.44, 1.387-32.00L 55.04,192.00 C 53.867,200.747, 53.333,209.60, 53.333,218.667z M 75.413,309.333c 15.573,30.187, 38.72,55.787, 66.987,74.347c-11.20-23.573-19.947-48.427-26.027-74.347L 75.413,309.333 z
	 M 222.40,413.973L 224.00,414.187L 224.00,309.333 l-52.48,0.00 C 182.08,347.52, 199.467,382.933, 222.40,413.973z M 277.333,414.187l 1.493-0.213c 22.933-31.04, 40.427-66.453, 50.987-104.64L 277.333,309.333 L 277.333,414.187 z
	 M 358.827,383.68c 28.267-18.56, 51.52-44.16, 67.093-74.347l-41.067,0.00 C 378.88,335.253, 370.016,360.107, 358.827,383.68z M 444.48,256.00c 2.347-12.053, 3.52-24.533, 3.52-37.333
	c0.00-9.067-0.651-17.92-1.813-26.667l-52.80,0.00 c 0.853,10.56, 1.28,21.227, 1.28,32.00s-0.427,21.44-1.28,32.00L 444.48,256.00 z M 431.147,138.667c-16.747-37.653-44.907-69.12-80.107-89.92
	c 14.933,28.053, 26.347,58.229, 33.813,89.92L 431.147,138.667 z M 150.293,48.747C 115.093,69.547, 86.933,101.013, 70.187,138.667l 46.293,0.00 C 123.947,106.976, 135.36,76.683, 150.293,48.747z
	 M 161.60,256.00L 224.00,256.00 l0.00-64.00 l-62.40,0.00 c-1.067,10.56-1.60,21.227-1.60,32.00S 160.533,245.44, 161.60,256.00z M 277.333,256.00l 62.40,0.00 C 340.80,245.44, 341.333,234.773, 341.333,224.00s-0.533-21.44-1.60-32.00
	L 277.333,192.00 L 277.333,256.00 z M 171.52,138.667L 224.00,138.667 l0.00-106.667 C 200.32,63.573, 182.293,99.627, 171.52,138.667z M 277.333,138.667l 52.48,0.00 c-10.773-39.04-28.80-75.093-52.48-106.667L 277.333,138.667 z" />
<glyph unicode="&#x5d;" d="M 22.187,457.803c-34.667-34.667-22.293-107.947, 24.96-190.08C 44.16,253.643, 42.667,239.04, 42.667,224.00
	c0.00-117.867, 95.467-213.333, 213.333-213.333c 15.04,0.00, 29.643,1.504, 43.733,4.48c 82.133-47.253, 155.413-59.627, 190.08-24.96s 22.293,107.936-24.96,190.08
	C 467.829,194.336, 469.333,208.96, 469.333,224.00c0.00,117.867-95.467,213.333-213.333,213.333c-15.04,0.00-29.653-1.504-43.733-4.48C 130.133,480.096, 56.853,492.469, 22.187,457.803z M 447.573,25.707
	C 318.613-15.584-5.984,353.589, 60.16,419.829c 15.36,15.264, 47.787,8.651, 88.00-11.733c-17.813-10.453-33.813-23.36-47.776-38.293
	C 145.387,256.949, 290.56,112.853, 403.733,70.08c 14.613,13.963, 27.211,30.08, 37.333,47.776C 457.92,81.269, 462.187,48.747, 447.573,25.707z" />
<glyph unicode="&#x5e;" d="M 74.667,10.667c0.00-23.573, 19.093-42.667, 42.667-42.667l 266.667,0.00 c 23.573,0.00, 42.667,19.093, 42.667,42.667L 426.667,394.667 c0.00,23.573-19.093,42.667-42.667,42.667l-53.333,0.00 L 330.667,456.533 
	C 330.667,469.547, 320.213,480.00, 307.20,480.00L 194.133,480.00 C 181.12,480.00, 170.667,469.547, 170.667,456.533L 170.667,437.333 l-53.333,0.00 C 93.76,437.333, 74.667,418.24, 74.667,394.667L 74.667,10.667 z" />
<glyph unicode="&#x5f;" d="M 74.667,10.667c0.00-23.573, 19.093-42.667, 42.667-42.667l 266.667,0.00 c 23.573,0.00, 42.667,19.093, 42.667,42.667L 426.667,394.667 c0.00,23.573-19.093,42.667-42.667,42.667l-53.333,0.00 L 330.667,456.533 
	C 330.667,469.547, 320.213,480.00, 307.20,480.00L 194.133,480.00 C 181.12,480.00, 170.667,469.547, 170.667,456.533L 170.667,437.333 l-53.333,0.00 C 93.76,437.333, 74.667,418.24, 74.667,394.667L 74.667,10.667 z M 151.467,106.667l 198.40,0.00 c 13.013,0.00, 23.467-10.453, 23.467-23.467l0.00-38.40 
	c0.00-13.013-10.453-23.467-23.467-23.467L 151.467,21.333 c-13.013,0.00-23.467,10.453-23.467,23.467l0.00,38.40 C 128.00,96.213, 138.453,106.667, 151.467,106.667z" />
<glyph unicode="&#x60;" d="M 74.667,10.667c0.00-23.573, 19.093-42.667, 42.667-42.667l 266.667,0.00 c 23.573,0.00, 42.667,19.093, 42.667,42.667L 426.667,394.667 c0.00,23.573-19.093,42.667-42.667,42.667l-53.333,0.00 L 330.667,456.533 
	C 330.667,469.547, 320.213,480.00, 307.20,480.00L 194.133,480.00 C 181.12,480.00, 170.667,469.547, 170.667,456.533L 170.667,437.333 l-53.333,0.00 C 93.76,437.333, 74.667,418.24, 74.667,394.667L 74.667,10.667 z M 151.467,106.667l 198.40,0.00 c 13.013,0.00, 23.467-10.453, 23.467-23.467l0.00-38.40 
	c0.00-13.013-10.453-23.467-23.467-23.467L 151.467,21.333 c-13.013,0.00-23.467,10.453-23.467,23.467l0.00,38.40 C 128.00,96.213, 138.453,106.667, 151.467,106.667z M 151.467,245.333l 198.40,0.00 c 13.013,0.00, 23.467-10.453, 23.467-23.467
	l0.00-38.40 c0.00-13.013-10.453-23.467-23.467-23.467L 151.467,160.00 c-13.013,0.00-23.467,10.453-23.467,23.467l0.00,38.40 C 128.00,234.88, 138.453,245.333, 151.467,245.333z" />
<glyph unicode="&#x61;" d="M 74.667,10.667c0.00-23.573, 19.093-42.667, 42.667-42.667l 266.667,0.00 c 23.573,0.00, 42.667,19.093, 42.667,42.667L 426.667,394.667 c0.00,23.573-19.093,42.667-42.667,42.667l-53.333,0.00 L 330.667,456.533 
	C 330.667,469.547, 320.213,480.00, 307.20,480.00L 194.133,480.00 C 181.12,480.00, 170.667,469.547, 170.667,456.533L 170.667,437.333 l-53.333,0.00 C 93.76,437.333, 74.667,418.24, 74.667,394.667L 74.667,10.667 z M 151.467,384.00l 198.40,0.00 c 13.013,0.00, 23.467-10.453, 23.467-23.467l0.00-38.40 
	c0.00-13.013-10.453-23.467-23.467-23.467L 151.467,298.667 c-13.013,0.00-23.467,10.453-23.467,23.467l0.00,38.40 C 128.00,373.547, 138.453,384.00, 151.467,384.00z M 151.467,106.667l 198.40,0.00 c 13.013,0.00, 23.467-10.453, 23.467-23.467l0.00-38.40 
	c0.00-13.013-10.453-23.467-23.467-23.467L 151.467,21.333 c-13.013,0.00-23.467,10.453-23.467,23.467l0.00,38.40 C 128.00,96.213, 138.453,106.667, 151.467,106.667z M 151.467,245.333l 198.40,0.00 c 13.013,0.00, 23.467-10.453, 23.467-23.467
	l0.00-38.40 c0.00-13.013-10.453-23.467-23.467-23.467L 151.467,160.00 c-13.013,0.00-23.467,10.453-23.467,23.467l0.00,38.40 C 128.00,234.88, 138.453,245.333, 151.467,245.333z" />
<glyph unicode="&#x62;" d="M0.00,53.333c0.00-23.573, 19.093-42.667, 42.667-42.667l 426.667,0.00 c 23.573,0.00, 42.667,19.093, 42.667,42.667L 512.00,341.333 c0.00,23.573-19.093,42.667-42.667,42.667L 256.00,384.00 L 256.00,403.20 
	C 256.00,416.213, 245.547,426.667, 232.533,426.667L 119.467,426.667 C 106.453,426.667, 96.00,416.213, 96.00,403.20L 96.00,85.333 c0.00-11.733-9.60-21.333-21.333-21.333s-21.333,9.60-21.333,21.333L 53.333,357.333 C 53.333,372.053, 41.387,384.00, 26.667,384.00S0.00,372.053,0.00,357.333L0.00,53.333 z" />
<glyph unicode="&#x63;" d="M 316.288,330.688c 23.04-5.333, 41.376-24.96, 46.709-46.40
	c 1.824-10.027, 10.56-17.60, 21.024-17.60c 11.733,0.00, 21.333,9.60, 21.333,21.333c0.00,15.36-12.907,38.72-30.507,56.213c-17.28,17.067-37.867,29.12-54.827,29.12c-11.733,0.00-21.333-9.92-21.333-21.653
	C 298.688,341.259, 306.261,332.501, 316.288,330.688z M 23.061,51.008c-16.533-16.523-16.533-43.413,0.00-59.936c 16.533-16.544, 43.413-16.544, 59.84,0.00
	l 122.549,122.453c 28.597-17.835, 62.293-28.171, 98.56-28.171c 103.147,0.00, 186.667,83.52, 186.667,186.667c0.00,103.147-83.52,186.667-186.667,186.667s-186.667-83.52-186.667-186.667
	c0.00-36.16, 10.357-69.973, 28.171-98.56L 23.061,51.008z M 170.688,272.021c0.00,73.60, 59.744,133.333, 133.333,133.333c 73.60,0.00, 133.333-59.733, 133.333-133.333
	s-59.733-133.333-133.333-133.333C 230.432,138.699, 170.688,198.432, 170.688,272.021z" />
<glyph unicode="&#x64;" d="M 250.699,298.688c-14.72,0.00-26.667-11.947-26.667-26.667s 11.947-26.667, 26.667-26.667l 106.677,0.00 
	c 14.709,0.00, 26.667,11.947, 26.667,26.667s-11.957,26.667-26.667,26.667L 250.699,298.688 z M 23.072,51.008c-16.544-16.523-16.544-43.413,0.00-59.936
	c 16.533-16.544, 43.413-16.544, 59.829,0.00l 122.56,122.453c 28.587-17.835, 62.304-28.171, 98.571-28.171c 103.147,0.00, 186.667,83.52, 186.667,186.667
	c0.00,103.147-83.52,186.667-186.667,186.667c-103.157,0.00-186.677-83.52-186.677-186.667c0.00-36.16, 10.347-69.973, 28.16-98.56L 23.072,51.008z M 170.699,272.021
	c0.00,73.60, 59.733,133.333, 133.344,133.333c 73.60,0.00, 133.333-59.733, 133.333-133.333s-59.733-133.333-133.333-133.333C 230.432,138.699, 170.699,198.432, 170.699,272.021z" />
<glyph unicode="&#x65;" d="M 250.699,298.688c-14.72,0.00-26.667-11.947-26.667-26.667s 11.947-26.667, 26.667-26.667l 26.677,0.00 l0.00-26.667 
	c0.00-14.72, 11.936-26.656, 26.667-26.656c 14.709,0.00, 26.667,11.936, 26.667,26.656l0.00,26.667 l 26.667,0.00 c 14.709,0.00, 26.667,11.947, 26.667,26.667s-11.957,26.667-26.667,26.667l-26.667,0.00 l0.00,26.667 
	c0.00,14.72-11.957,26.667-26.667,26.667c-14.731,0.00-26.667-11.947-26.667-26.667l0.00-26.667 L 250.699,298.688 z M 23.072,51.008c-16.544-16.523-16.544-43.413,0.00-59.936
	c 16.533-16.544, 43.413-16.544, 59.829,0.00l 122.56,122.453c 28.587-17.835, 62.304-28.171, 98.571-28.171c 103.147,0.00, 186.667,83.52, 186.667,186.667
	c0.00,103.147-83.52,186.667-186.667,186.667c-103.157,0.00-186.677-83.52-186.677-186.667c0.00-36.16, 10.347-69.973, 28.16-98.56L 23.072,51.008z M 170.699,272.021
	c0.00,73.60, 59.733,133.333, 133.344,133.333c 73.60,0.00, 133.333-59.733, 133.333-133.333s-59.733-133.333-133.333-133.333C 230.432,138.699, 170.699,198.432, 170.699,272.021z" />
<glyph unicode="&#x66;" d="M0.00,10.667c0.00-23.573, 19.093-42.667, 42.667-42.667l 138.667,0.00 c 23.573,0.00, 42.667,19.093, 42.667,42.667L 224.00,181.333 l 64.00,0.00 l0.00-170.667 c0.00-23.573, 19.093-42.667, 42.667-42.667l 138.667,0.00 
	c 23.573,0.00, 42.667,19.093, 42.667,42.667L 512.00,288.00 c0.00,23.573-19.093,42.667-42.667,42.667l-21.333,0.00 L 448.00,426.667 l 5.333,0.00 C 468.053,426.667, 480.00,438.613, 480.00,453.333S 468.053,480.00, 453.333,480.00l-138.667,0.00 C 299.947,480.00, 288.00,468.053, 288.00,453.333
	S 299.947,426.667, 314.667,426.667L 320.00,426.667 l0.00-96.00 L 192.00,330.667 L 192.00,426.667 l 5.333,0.00 C 212.053,426.667, 224.00,438.613, 224.00,453.333S 212.053,480.00, 197.333,480.00l-138.667,0.00 C 43.947,480.00, 32.00,468.053, 32.00,453.333S 43.947,426.667, 58.667,426.667L 64.00,426.667 l0.00-96.00 L 42.667,330.667 
	c-23.573,0.00-42.667-19.093-42.667-42.667L0.00,10.667 z M 277.333,234.667l-42.667,0.00 c-11.733,0.00-21.333,9.60-21.333,21.333s 9.60,21.333, 21.333,21.333l 42.667,0.00 c 11.733,0.00, 21.333-9.60, 21.333-21.333S 289.067,234.667, 277.333,234.667z" />
<glyph unicode="&#x67;" d="M 224.00,314.667c0.00,14.72, 11.947,26.667, 26.667,26.667s 26.667-11.947, 26.667-26.667S 265.387,288.00, 250.667,288.00
	S 224.00,299.947, 224.00,314.667z M 250.667,384.00c-38.293,0.00-69.333-31.04-69.333-69.333s 31.04-69.333, 69.333-69.333c 38.293,0.00, 69.333,31.04, 69.333,69.333S 288.96,384.00, 250.667,384.00z M 85.333,317.653
	C 85.333,208.853, 213.653,125.12, 224.00,0.00l0.00-5.333 c0.00-14.72, 11.947-26.667, 26.667-26.667s 26.667,11.947, 26.667,26.667L 277.333,0.00 c 10.976,125.12, 138.667,208.853, 138.667,317.653
	C 416.00,407.36, 341.984,480.00, 250.667,480.00C 159.36,480.00, 85.333,407.36, 85.333,317.653z M 250.667,426.667C 312.533,426.667, 362.667,376.533, 362.667,314.667S 312.533,202.667, 250.667,202.667S 138.667,252.80, 138.667,314.667S 188.80,426.667, 250.667,426.667z" />
<glyph unicode="&#x68;" d="M 138.667,244.267l-78.933-79.68C 55.787,160.747, 53.333,155.317, 53.333,149.333c0.00-11.733, 9.493-21.333, 21.12-21.333L 224.00,128.00 l0.00-133.333 
	c0.00-14.72, 11.947-26.667, 26.667-26.667s 26.667,11.947, 26.667,26.667L 277.333,128.00 l 160.213,0.00 c 11.627,0.00, 21.12,9.60, 21.12,21.333c0.00,5.867-2.357,11.20-6.187,15.04L 373.333,244.373L 373.333,426.667 l 16.00,0.00 
	C 404.053,426.667, 416.00,438.613, 416.00,453.333S 404.053,480.00, 389.333,480.00l-266.667,0.00 C 107.947,480.00, 96.00,468.053, 96.00,453.333S 107.947,426.667, 122.667,426.667L 138.667,426.667 L 138.667,244.267 z M 234.667,405.333l0.00-138.667 c0.00-11.733-9.60-21.333-21.333-21.333s-21.333,9.60-21.333,21.333L 192.00,405.333 
	c0.00,11.733, 9.60,21.333, 21.333,21.333S 234.667,417.067, 234.667,405.333z" />
<glyph unicode="&#x69;" d="M 96.00,480.00C 72.427,480.00, 53.333,460.907, 53.333,437.333l0.00-426.667 c0.00-23.573, 19.093-42.667, 42.667-42.667l 320.00,0.00 c 23.573,0.00, 42.667,19.093, 42.667,42.667L 458.667,331.52 
	c0.00,14.293-5.643,26.987-14.72,36.16L 347.093,464.32C 337.504,474.027, 324.053,480.00, 309.333,480.00L 96.00,480.00 z M 245.333,405.333c0.00,11.733, 9.60,21.333, 21.333,21.333c 11.733,0.00, 21.333-9.60, 21.333-21.333l0.00-80.00 
	c0.00-8.853, 7.147-16.00, 16.00-16.00L 384.00,309.333 c 11.733,0.00, 21.333-9.60, 21.333-21.333s-9.60-21.333-21.333-21.333l-96.00,0.00 c-23.573,0.00-42.667,19.093-42.667,42.667L 245.333,405.333 z" />
<glyph unicode="&#x6a;" d="M 362.677,357.344c0.00-14.72, 11.947-26.667, 26.667-26.667s 26.667,11.947, 26.667,26.667s-11.947,26.667-26.667,26.667
	S 362.677,372.064, 362.677,357.344z M 176.224-19.616c 16.427-16.544, 43.093-16.544, 59.627,0.00l 260.693,258.987c 10.443,10.443, 15.68,24.213, 15.467,37.973L 512.011,427.104 
	c0.00,29.227-23.691,52.907-52.907,52.907l-149.76,0.00 c-13.76,0.224-27.52-5.013-37.984-15.467L 12.384,203.84c-16.544-16.523-16.544-43.189,0.00-59.627L 176.224-19.616z
	 M 320.011,357.344c0.00,38.293, 31.04,69.333, 69.333,69.333s 69.333-31.04, 69.333-69.333s-31.04-69.333-69.333-69.333S 320.011,319.051, 320.011,357.344z" />
<glyph unicode="&#x6b;" d="M0.00,21.333c0.00-23.573, 19.093-42.667, 42.667-42.667l 138.667,0.00 c 23.573,0.00, 42.667,19.093, 42.667,42.667L 224.00,192.00 c0.00,23.573-19.093,42.667-42.667,42.667l-68.48,0.00 
	c-11.84,0.00-21.333,9.60-21.333,21.333c0.00,3.84, 0.96,6.507, 0.96,6.507c 15.573,51.627, 54.923,93.013, 105.387,111.36l 0.213,0.213C 213.333,380.587, 224.00,395.733, 224.00,413.333
	c0.00,23.573-19.093,42.667-42.667,42.667c-5.76,0.00-11.20-1.173-16.213-3.20L 163.20,452.053C 67.733,414.827,0.00,322.027,0.00,213.333L0.00,21.333 z M 277.333,21.333c0.00-23.573, 19.093-42.667, 42.667-42.667l 138.667,0.00 
	c 23.573,0.00, 42.667,19.093, 42.667,42.667L 501.333,192.00 c0.00,23.573-19.093,42.667-42.667,42.667l-68.48,0.00 c-11.84,0.00-21.333,9.60-21.333,21.333c0.00,3.947, 0.96,6.507, 0.96,6.507c 15.573,51.627, 54.923,93.013, 105.387,111.36
	l 0.213,0.213C 490.667,380.587, 501.333,395.733, 501.333,413.333c0.00,23.573-19.093,42.667-42.667,42.667c-5.76,0.00-11.20-1.173-16.213-3.20L 440.533,452.053C 345.067,414.827, 277.333,322.027, 277.333,213.333L 277.333,21.333 z" />
<glyph unicode="&#x6c;" d="M 350.944,320.00l-186.667-187.829c-6.197-6.187-16.224-6.187-22.411,0.00
	c-6.187,6.176-6.187,16.309,0.00,22.496L 360.661,374.837c 9.067,9.163, 23.776,9.163, 32.843,0.00l 49.28-49.60c 9.067-9.067, 9.067-23.893,0.00-33.067L 224.011,72.00
	c-39.147-39.349-102.613-39.349-141.867,0.00c-39.157,39.467-39.157,103.349,0.00,142.837l 186.667,187.829c 10.347,10.347, 10.347,27.20,0.00,37.557
	c-10.24,10.347-26.987,10.347-37.333,0.00l-186.667-187.84c-59.744-60.171-59.744-157.76,0.00-217.92c 59.84-60.171, 156.80-60.171, 216.533,0.00l 235.20,236.683
	c 20.597,20.80, 20.597,54.411,0.00,75.20l-82.133,82.56c-20.587,20.80-54.08,20.80-74.667,0.00L 104.544,192.213c-26.773-26.88-26.773-70.603,0.00-97.589
	c 26.88-26.987, 70.293-26.987, 97.077,0.00l 186.667,187.84c 10.347,10.347, 10.347,27.20,0.00,37.547C 377.931,330.347, 361.291,330.347, 350.944,320.00z" />
<glyph unicode="&#x6d;" d="M 149.333,480.00c-23.573,0.00-42.667-19.093-42.667-42.667l0.00-448.00 c0.00-11.733, 9.60-21.333, 21.333-21.333c 5.867,0.00, 11.20,2.347, 15.04,6.187
	l 55.253,54.933c 8.32,8.416, 21.867,8.416, 30.187,0.00l 55.147-54.933C 287.467-29.653, 292.80-32.00, 298.667-32.00c 11.733,0.00, 21.333,9.60, 21.333,21.333L 320.00,405.333 c0.00,12.373, 9.60,21.333, 21.333,21.333l 26.667,0.00 
	C 382.72,426.667, 394.667,438.613, 394.667,453.333S 382.72,480.00, 368.00,480.00L 149.333,480.00 z" />
<glyph unicode="&#x6e;" d="M 42.667,437.333l0.00-426.667 c0.00-23.573, 19.093-42.667, 42.667-42.667l 357.333,0.00 c 14.72,0.00, 26.667,11.947, 26.667,26.667S 457.387,21.333, 442.667,21.333L 117.333,21.333 
	c-11.733,0.00-21.333,9.60-21.333,21.333s 9.60,21.333, 21.333,21.333l 309.333,0.00 c 23.573,0.00, 42.667,19.093, 42.667,42.667L 469.333,437.333 c0.00,23.573-19.093,42.667-42.667,42.667L 277.333,480.00 l0.00-191.893 c0.00-2.773-1.067-5.547-3.093-7.68
	c-4.16-4.16-10.987-4.16-15.147,0.00C 256.32,283.317, 213.333,319.04, 213.333,319.04s-42.987-35.733-45.76-38.613c-4.16-4.16-10.987-4.16-15.147,0.00
	C 150.40,282.56, 149.333,285.333, 149.333,288.107L 149.333,480.00 L 85.333,480.00 C 61.76,480.00, 42.667,460.907, 42.667,437.333z" />
<glyph unicode="&#x6f;" d="M0.00,42.667c0.00-23.573, 19.093-42.667, 42.667-42.667l 426.667,0.00 c 23.573,0.00, 42.667,19.093, 42.667,42.667L 512.00,394.667 c0.00,23.573-19.093,42.667-42.667,42.667L 138.667,437.333 
	c-23.573,0.00-42.667-19.093-42.667-42.667l0.00-320.00 c0.00-11.733-9.60-21.333-21.333-21.333s-21.333,9.60-21.333,21.333L 53.333,357.333 C 53.333,372.053, 41.387,384.00, 26.667,384.00S0.00,372.053,0.00,357.333L0.00,42.667 z M 298.667,360.533l0.00-81.067 
	c0.00-13.013-10.453-23.467-23.467-23.467l-102.40,0.00 c-13.013,0.00-23.467,10.453-23.467,23.467l0.00,81.067 C 149.333,373.547, 159.787,384.00, 172.80,384.00l 102.40,0.00 C 288.213,384.00, 298.667,373.547, 298.667,360.533z M 437.333,170.667L 170.667,170.667 
	c-11.733,0.00-21.333,9.60-21.333,21.333s 9.60,21.333, 21.333,21.333l 266.667,0.00 c 11.733,0.00, 21.333-9.60, 21.333-21.333S 449.067,170.667, 437.333,170.667z M 437.333,85.333L 170.667,85.333 c-11.733,0.00-21.333,9.60-21.333,21.333s 9.60,21.333, 21.333,21.333l 266.667,0.00 c 11.733,0.00, 21.333-9.60, 21.333-21.333
	S 449.067,85.333, 437.333,85.333z M 437.333,341.333l-74.667,0.00 c-11.733,0.00-21.333,9.60-21.333,21.333s 9.60,21.333, 21.333,21.333l 74.667,0.00 c 11.733,0.00, 21.333-9.60, 21.333-21.333S 449.067,341.333, 437.333,341.333z M 437.333,256.00l-74.667,0.00 c-11.733,0.00-21.333,9.60-21.333,21.333s 9.60,21.333, 21.333,21.333l 74.667,0.00 
	c 11.733,0.00, 21.333-9.60, 21.333-21.333S 449.067,256.00, 437.333,256.00z" />
<glyph unicode="&#x70;" d="M0.00,10.667c0.00-23.573, 19.093-42.667, 42.667-42.667l 426.667,0.00 c 23.573,0.00, 42.667,19.093, 42.667,42.667L 512.00,384.00 c0.00,23.573-19.093,42.667-42.667,42.667l-42.667,0.00 L 426.667,453.333 
	C 426.667,468.053, 414.72,480.00, 400.00,480.00S 373.333,468.053, 373.333,453.333L 373.333,426.667 l-42.667,0.00 L 330.667,453.333 C 330.667,468.053, 318.72,480.00, 304.00,480.00S 277.333,468.053, 277.333,453.333L 277.333,426.667 l-42.667,0.00 L 234.667,453.333 C 234.667,468.053, 222.72,480.00, 208.00,480.00
	S 181.333,468.053, 181.333,453.333L 181.333,426.667 l-42.667,0.00 L 138.667,453.333 C 138.667,468.053, 126.72,480.00, 112.00,480.00S 85.333,468.053, 85.333,453.333L 85.333,426.667 L 42.667,426.667 C 19.093,426.667,0.00,407.573,0.00,384.00L0.00,10.667 z M 76.80,373.333L 85.333,373.333 l0.00-37.333 c0.00-14.72, 11.947-26.667, 26.667-26.667
	s 26.667,11.947, 26.667,26.667L 138.667,373.333 l 42.667,0.00 l0.00-37.333 c0.00-14.72, 11.947-26.667, 26.667-26.667s 26.667,11.947, 26.667,26.667L 234.667,373.333 l 42.667,0.00 l0.00-37.333 c0.00-14.72, 11.947-26.667, 26.667-26.667s 26.667,11.947, 26.667,26.667L 330.667,373.333 l 42.667,0.00 l0.00-37.333 
	c0.00-14.72, 11.947-26.667, 26.667-26.667s 26.667,11.947, 26.667,26.667L 426.667,373.333 l 8.533,0.00 c 13.013,0.00, 23.467-10.453, 23.467-23.467l0.00-113.067 c0.00-13.013-10.453-23.467-23.467-23.467L 76.80,213.333 
	C 63.787,213.333, 53.333,223.787, 53.333,236.80L 53.333,349.867 C 53.333,362.88, 63.787,373.333, 76.80,373.333z" />
<glyph unicode="&#x71;" d="M 426.667-32.00c 23.573,0.00, 42.667,19.093, 42.667,42.667l0.00,53.333 l 19.20,0.00 c 13.013,0.00, 23.467,10.453, 23.467,23.467L 512.00,200.533 
	c0.00,13.013-10.453,23.467-23.467,23.467L 469.333,224.00 l0.00,42.667 l 19.20,0.00 c 13.013,0.00, 23.467,10.453, 23.467,23.467L 512.00,403.20 C 512.00,416.213, 501.547,426.667, 488.533,426.667L 469.333,426.667 L 469.333,437.333 c0.00,23.573-19.093,42.667-42.667,42.667L 96.00,480.00 
	C 72.427,480.00, 53.333,460.907, 53.333,437.333l0.00-42.667 L 26.667,394.667 C 11.947,394.667,0.00,382.72,0.00,368.00S 11.947,341.333, 26.667,341.333L 53.333,341.333 l0.00-42.667 L 26.667,298.667 C 11.947,298.667,0.00,286.72,0.00,272.00S 11.947,245.333, 26.667,245.333L 53.333,245.333 l0.00-42.667 L 26.667,202.667 
	C 11.947,202.667,0.00,190.72,0.00,176.00S 11.947,149.333, 26.667,149.333L 53.333,149.333 l0.00-42.667 L 26.667,106.667 C 11.947,106.667,0.00,94.72,0.00,80.00S 11.947,53.333, 26.667,53.333L 53.333,53.333 l0.00-42.667 c0.00-23.573, 19.093-42.667, 42.667-42.667L 426.667-32.00 z M 106.667,44.80L 106.667,53.333 l 37.333,0.00 
	c 14.72,0.00, 26.667,11.947, 26.667,26.667S 158.72,106.667, 144.00,106.667L 106.667,106.667 l0.00,42.667 l 37.333,0.00 c 14.72,0.00, 26.667,11.947, 26.667,26.667S 158.72,202.667, 144.00,202.667L 106.667,202.667 l0.00,42.667 l 37.333,0.00 c 14.72,0.00, 26.667,11.947, 26.667,26.667
	S 158.72,298.667, 144.00,298.667L 106.667,298.667 l0.00,42.667 l 37.333,0.00 c 14.72,0.00, 26.667,11.947, 26.667,26.667S 158.72,394.667, 144.00,394.667L 106.667,394.667 L 106.667,403.20 C 106.667,416.213, 117.12,426.667, 130.133,426.667l 70.40,0.00 C 213.547,426.667, 224.00,416.213, 224.00,403.20
	l0.00-358.40 c0.00-13.013-10.453-23.467-23.467-23.467l-70.40,0.00 C 117.12,21.333, 106.667,31.787, 106.667,44.80z" />
<glyph unicode="&#x72;" d="M 325.333,224.00l-149.333,0.00 c-14.72,0.00-26.667-11.947-26.667-26.667s 11.947-26.667, 26.667-26.667l 149.333,0.00 
	c 14.72,0.00, 26.667,11.947, 26.667,26.667S 340.053,224.00, 325.333,224.00z M 325.333,128.00l-149.333,0.00 c-14.72,0.00-26.667-11.947-26.667-26.667s 11.947-26.667, 26.667-26.667l 149.333,0.00 c 14.72,0.00, 26.667,11.947, 26.667,26.667
	S 340.053,128.00, 325.333,128.00z M 42.667,10.667c0.00-23.573, 19.093-42.667, 42.667-42.667l 330.667,0.00 c 23.573,0.00, 42.667,19.093, 42.667,42.667L 458.667,373.333 c0.00,23.573-19.093,42.667-42.667,42.667l-86.933,0.00 c-7.349,36.48-39.68,64.00-78.40,64.00
	s-71.04-27.52-78.40-64.00L 85.333,416.00 c-23.573,0.00-42.667-19.093-42.667-42.667L 42.667,10.667 z M 119.467,362.667L 170.667,362.667 l0.00-19.20 c0.00-13.013, 10.453-23.467, 23.467-23.467l 113.067,0.00 c 13.013,0.00, 23.467,10.453, 23.467,23.467L 330.667,362.667 l 51.20,0.00 
	c 13.013,0.00, 23.467-10.453, 23.467-23.467l0.00-294.40 c0.00-13.013-10.453-23.467-23.467-23.467L 119.467,21.333 C 106.453,21.333, 96.00,31.787, 96.00,44.80L 96.00,339.20 C 96.00,352.213, 106.453,362.667, 119.467,362.667z M 224.00,400.00
	C 224.00,414.72, 235.947,426.667, 250.667,426.667S 277.333,414.72, 277.333,400.00S 265.387,373.333, 250.667,373.333S 224.00,385.28, 224.00,400.00z" />
<glyph unicode="&#x73;" d="M 42.667,10.667c0.00-23.573, 19.093-42.667, 42.667-42.667l 330.667,0.00 c 23.573,0.00, 42.667,19.093, 42.667,42.667L 458.667,373.333 c0.00,23.573-19.093,42.667-42.667,42.667l-86.933,0.00 
	c-7.349,36.48-39.68,64.00-78.40,64.00s-71.04-27.52-78.40-64.00L 85.333,416.00 c-23.573,0.00-42.667-19.093-42.667-42.667L 42.667,10.667 z M 119.467,362.667L 170.667,362.667 l0.00-19.20 c0.00-13.013, 10.453-23.467, 23.467-23.467l 113.067,0.00 
	c 13.013,0.00, 23.467,10.453, 23.467,23.467L 330.667,362.667 l 51.20,0.00 c 13.013,0.00, 23.467-10.453, 23.467-23.467l0.00-294.40 c0.00-13.013-10.453-23.467-23.467-23.467L 119.467,21.333 C 106.453,21.333, 96.00,31.787, 96.00,44.80L 96.00,339.20 
	C 96.00,352.213, 106.453,362.667, 119.467,362.667z M 224.00,400.00C 224.00,414.72, 235.947,426.667, 250.667,426.667S 277.333,414.72, 277.333,400.00S 265.387,373.333, 250.667,373.333S 224.00,385.28, 224.00,400.00z" />
<glyph unicode="&#x74;" d="M 250.667,138.987c-11.947,15.147-22.40,22.613-48.32,25.163c-4.693,0.853-8.107,4.907-8.107,9.707
	c0.00,3.52, 11.52,14.08, 11.403,14.187C 217.60,200.107, 224.00,219.627, 224.00,234.667c0.00,23.349-20.683,42.667-48.00,42.667c-27.84,0.00-48.00-19.317-48.00-42.667
	c0.00-15.147, 6.293-34.773, 18.24-46.837c0.00,0.00, 11.52-10.443, 11.52-13.973c0.00-5.013-3.84-9.28-8.96-9.92c-25.397-2.56-35.637-10.027-47.467-24.96
	c-3.317-4.373-5.227-13.013-5.333-17.60l0.00-20.053 c0.00-8.853, 7.349-16.00, 16.427-16.00l 127.147,0.00 c 9.077,0.00, 16.427,7.147, 16.427,16.00l0.00,20.053 
	C 255.893,125.984, 254.069,134.613, 250.667,138.987z M 378.667,256.00l-53.333,0.00 c-14.72,0.00-26.667-11.947-26.667-26.667s 11.947-26.667, 26.667-26.667l 53.333,0.00 c 14.72,0.00, 26.667,11.947, 26.667,26.667
	S 393.387,256.00, 378.667,256.00z M 378.667,160.00l-53.333,0.00 c-14.72,0.00-26.667-11.947-26.667-26.667s 11.947-26.667, 26.667-26.667l 53.333,0.00 c 14.72,0.00, 26.667,11.947, 26.667,26.667S 393.387,160.00, 378.667,160.00z M0.00,32.00
	c0.00-23.573, 19.093-42.667, 42.667-42.667l 426.667,0.00 c 23.573,0.00, 42.667,19.093, 42.667,42.667L 512.00,373.333 c0.00,23.573-19.093,42.667-42.667,42.667L 341.333,416.00 L 341.333,435.20 C 341.333,448.213, 330.88,458.667, 317.867,458.667L 194.133,458.667 C 181.12,458.667, 170.667,448.213, 170.667,435.20L 170.667,416.00 L 42.667,416.00 
	c-23.573,0.00-42.667-19.093-42.667-42.667L0.00,32.00 z M 76.80,362.667L 170.667,362.667 l0.00-19.20 c0.00-13.013, 10.453-23.467, 23.467-23.467l 123.733,0.00 c 13.013,0.00, 23.467,10.453, 23.467,23.467L 341.333,362.667 l 93.867,0.00 c 13.013,0.00, 23.467-10.453, 23.467-23.467l0.00-273.067 
	c0.00-13.013-10.453-23.467-23.467-23.467L 76.80,42.667 C 63.787,42.667, 53.333,53.12, 53.333,66.133L 53.333,339.20 C 53.333,352.213, 63.787,362.667, 76.80,362.667z" />
<glyph unicode="&#x75;" d="M 59.317,264.459c-10.443-10.443-15.467-25.387-18.016-40.533L 0.64,31.712
	c-5.76-34.144, 28.48-68.491, 63.051-63.157l 192.437,40.117c 14.08,2.549, 29.333,6.933, 39.787,17.387l 203.84,204.064c 16.32,16.416, 16.32,42.976,0.00,59.403
	l-178.027,178.24c-16.427,16.32-42.987,16.32-59.317,0.00L 59.317,264.459z M 254.944,59.339l-99.627-19.104l-82.56,82.667l 18.976,99.744l 148.384,148.587
	c 8.213,8.224, 21.44,8.224, 29.653,0.00c 8.224-8.213, 8.224-21.547,0.00-29.76l-137.184-137.387c-10.24-10.24-10.24-26.891,0.00-37.109
	c 10.24-10.251, 26.773-10.251, 37.013,0.00l 137.291,137.387c 8.224,8.213, 21.44,8.213, 29.653,0.00c 8.224-8.224, 8.224-21.451,0.00-29.653l-137.184-137.387
	c-10.24-10.24-10.24-26.891,0.00-37.12c 10.24-10.24, 26.784-10.24, 37.013,0.00l 137.291,137.387c 8.117,8.117, 21.451,8.117, 29.664,0.00
	c 8.213-8.213, 8.213-21.547,0.00-29.749L 254.944,59.339z" />
<glyph unicode="&#x76;" d="M 246.507,185.163L 65.707,4.373C 61.867,0.533, 59.52-4.80, 59.52-10.667c0.00-11.733, 9.493-21.333, 21.333-21.333
	c 3.093,0.00, 5.973,0.651, 8.64,1.813c0.00,0.00, 301.227,130.56, 304.651,132.171c 7.029,3.189, 12.48,9.376, 14.613,17.067l 48.747,175.68l 9.813-9.707
	c 10.229-10.24, 26.773-10.24, 37.003,0.00c 10.251,10.24, 10.251,26.784,0.00,37.013L 354.016,472.32c-10.229,10.24-26.773,10.24-37.003,0.00
	c-10.251-10.24-10.251-26.784,0.00-37.013L 326.72,425.60l-176.00-48.96c-7.68-2.251-13.867-7.787-17.067-15.04L 1.707,57.163C 0.64,54.613,0.00,51.829,0.00,48.853
	c0.00-11.84, 9.60-21.333, 21.333-21.333c 6.08,0.00, 11.52,2.453, 15.36,6.496l 180.48,180.48C 214.72,220.80, 213.333,227.52, 213.333,234.667c0.00,29.44, 23.893,53.333, 53.333,53.333s 53.333-23.893, 53.333-53.333s-23.893-53.333-53.333-53.333
	C 259.52,181.333, 252.80,182.72, 246.507,185.163z" />
</font>
</defs>
</svg>
