<?xml version="1.0" standalone="no"?>
<!DOCTYPE svg PUBLIC "-//W3C//DTD SVG 1.1//EN" "http://www.w3.org/Graphics/SVG/1.1/DTD/svg11.dtd" >
<svg xmlns="http://www.w3.org/2000/svg">
<metadata>
This is a custom SVG font generated by IcoMoon.</metadata>
<defs>
<font id="Entypo" horiz-adv-x="512" >
<font-face units-per-em="512" ascent="480" descent="-32" />
<missing-glyph horiz-adv-x="512" />
<glyph unicode="&#x21;" d="M 286.236,193.976c-38.00-38.00-82.012-74.332-99.40-56.931c-24.908,24.904-40.26,46.596-95.16,2.468
		c-54.901-44.136-12.74-73.544, 11.388-97.68c 27.841-27.845, 131.624-1.463, 234.20,101.109
		c 102.572,102.584, 128.961,206.361, 101.104,234.208c-24.133,24.133-53.544,66.28-97.664,11.381
		C 296.576,333.644, 318.256,318.284, 343.168,293.376C 360.557,275.984, 324.236,231.984, 286.236,193.976z" />
<glyph unicode="&#x22;" d="M 353.521,474.848l-194.56,0.00 c-28.16,0.00-51.20-23.04-51.20-51.20l0.00-399.36 c0.00-28.16, 23.04-51.20, 51.20-51.20l 194.56,0.00 c 28.16,0.00, 51.20,23.04, 51.20,51.20l0.00,399.36 
		C 404.721,451.808, 381.681,474.848, 353.521,474.848z M 256.24-6.432c-19.784,0.00-35.84,11.457-35.84,25.60c0.00,14.136, 16.056,25.60, 35.84,25.60
		s 35.84-11.464, 35.84-25.60C 292.081,5.024, 276.024-6.432, 256.24-6.432z M 363.761,70.368l-215.04,0.00 l0.00,337.92 l 215.04,0.00 L 363.761,70.368 z" />
<glyph unicode="&#x23;" d="M 394.028,111.759l-67.219,192.932C 308.312,357.768, 250.872,387.108, 196.451,372.616L 145.852,470.773
		c-4.583,8.888-15.316,12.288-24.005,7.596c-8.679-4.692-12.00-15.716-7.416-24.60l 49.384-95.803
		c-39.351-26.104-59.80-75.604-46.84-122.216l 54.776-197.021c 15.396-55.372, 78.84-83.584, 142.608-64.084
		C 377.312-3.228, 412.928,57.531, 394.028,111.759z M 227.572,252.061c-18.692-6.14-38.696,4.404-44.683,23.556
		c-5.997,19.156, 4.297,39.66, 22.984,45.795c 18.688,6.144, 38.70-4.40, 44.688-23.556C 256.556,278.704, 246.264,258.201, 227.572,252.061z
		" />
<glyph unicode="&#x24;" d="M 217.84,454.368l-23.04,0.00 c-5.632,0.00-10.24-4.604-10.24-10.24l0.00-97.28 L 94.04,346.848 
		c-4.224,0.00-9.472-0.965-14.516-2.52c-5.052-1.548-9.90-3.697-13.337-6.048l-60.80-41.736
		c-3.437-2.356-5.148-5.464-5.148-8.576c0.00-3.104, 1.712-6.209, 5.148-8.568l 60.80-41.736
		c 3.437-2.356, 8.284-4.499, 13.337-6.056c 5.044-1.556, 10.292-2.52, 14.516-2.52l 90.52,0.00 l0.00-225.28 c0.00-5.632, 4.608-10.24, 10.24-10.24l 23.04,0.00 
		c 5.628,0.00, 10.24,4.608, 10.24,10.24l0.00,440.32 C 228.08,449.764, 223.469,454.368, 217.84,454.368z M 507.084,347.74l-60.80,41.732
		c-3.437,2.359-8.284,4.499-13.337,6.06c-5.044,1.552-10.288,2.516-14.516,2.516L 243.44,398.048 l 20.495-117.76l 154.496,0.00 
		c 4.228,0.00, 9.472,0.965, 14.516,2.52c 5.052,1.552, 9.90,3.697, 13.337,6.052l 60.80,41.739c 3.437,2.352, 5.156,5.46, 5.156,8.568
		C 512.241,342.28, 510.52,345.384, 507.084,347.74z" />
<glyph unicode="&#x25;" d="M 41.044,344.66c 12.50-6.721, 185.556-99.68, 191.996-103.139c 6.444-3.46, 14.788-5.131, 23.20-5.131
		c 8.408,0.00, 16.753,1.672, 23.20,5.131c 6.44,3.46, 179.496,96.42, 191.992,103.139c 12.508,6.708, 24.344,27.788, 1.368,27.788L 39.68,372.447 
		C 16.72,372.448, 28.54,351.368, 41.044,344.66z M 476.728,293.46c-14.20-7.413-188.592-98.604-197.288-103.144
		c-8.70-4.54-14.792-5.131-23.20-5.131c-8.412,0.00-14.50,0.592-23.20,5.131C 224.344,194.856, 49.96,286.048, 35.748,293.46
		c-9.995,5.208-9.908-0.907-9.908-5.621c0.00-4.72,0.00-187.805,0.00-187.805c0.00-10.732, 14.296-24.548, 25.388-24.548l 410.02,0.00 
		c 11.096,0.00, 25.392,13.816, 25.392,24.548c0.00,0.00,0.00,183.084,0.00,187.805C 486.641,292.553, 486.736,298.668, 476.728,293.46z" />
<glyph unicode="&#x26;" d="M 423.705,391.952c-36.948,36.948-64.669,31.40-64.669,31.40L 229.712,294.028l-147.808-147.804l-25.856-121.936
		l 121.925,25.864l 147.811,147.804l 129.328,129.32C 455.112,327.277, 460.664,355.00, 423.705,391.952z M 170.708,64.808
		l-41.556-8.949c-4.02,7.508-8.84,15.004-17.688,23.856c-8.847,8.843-16.352,13.66-23.852,17.692l 8.956,41.552
		l 12.007,12.021c0.00,0.00, 22.624-0.449, 48.157-25.996c 25.541-25.537, 25.999-48.164, 25.999-48.164L 170.708,64.808z" />
<glyph unicode="&#x27;" d="M 142.311-27.864c-33.66,0.00-65.16,14.28-87.912,37.032C 10.32,53.248-1.968,130.195, 59.831,191.996
		c 36.208,36.208, 181.248,181.244, 253.648,253.652c 25.70,25.704, 58.42,35.624, 89.739,27.236
		c 30.76-8.24, 55.972-33.44, 64.212-64.201c 8.388-31.336-1.532-64.044-27.232-89.744L 197.632,76.368
		c-13.852-13.852-29.492-22.052-45.22-23.712c-15.572-1.639-30.44,3.38-40.84,13.78
		c-18.872,18.86-21.56,54.371, 9.808,85.731l 170.38,170.384c 7.00,7.00, 18.34,7.00, 25.34,0.00
		c 7.00-6.992, 7.00-18.344,0.00-25.34L 146.72,126.823c-14.728-14.72-16.08-28.776-9.808-35.048
		c 2.747-2.753, 6.92-3.992, 11.728-3.48c 7.38,0.779, 15.78,5.552, 23.652,13.408l 242.568,242.576
		c 16.64,16.644, 23.02,36.22, 17.952,55.124c-4.992,18.619-20.239,33.868-38.86,38.86c-18.90,5.068-38.48-1.312-55.132-17.956
		C 266.42,347.90, 121.38,202.855, 85.172,166.656c-47.261-47.261-35.939-101.632-5.431-132.151
		c 30.512-30.508, 84.88-41.827, 132.151,5.431l 253.648,253.652c 7.00,7.00, 18.34,7.00, 25.34,0.00
		c 7.00-6.996, 7.00-18.344,0.00-25.34L 237.232,14.596C 207.331-15.304, 173.872-27.864, 142.311-27.864z" />
<glyph unicode="&#x28;" d="M 486.641,49.888c0.00,0.00-51.20,249.18-275.84,249.18l0.00,98.98 l-184.96-165.248l 184.96-171.296L 210.801,173.075 
		C 332.728,173.075, 423.059,162.264, 486.641,49.888z" />
<glyph unicode="&#x29;" d="M 185.20,329.428L 185.20,398.048 L 0.24,232.80l 184.96-171.296L 185.20,132.623 l-108.16,100.176L 185.20,329.428z M 313.201,299.068
		l0.00,98.98 l-184.96-165.248l 184.96-171.296L 313.201,173.064 c 84.28,0.00, 135.46-10.80, 199.04-123.176
		C 512.241,49.888, 502.828,299.068, 313.201,299.068z" />
<glyph unicode="&#x2a;" d="M 301.681,173.075l0.00-111.56 l 184.96,171.283l-184.96,165.248l0.00-98.98 c-224.64,0.00-275.84-249.18-275.84-249.18
		C 89.42,162.264, 179.748,173.075, 301.681,173.075z" />
<glyph unicode="&#x2b;" d="M 392.44,110.105C 329.329,133.105, 309.16,152.504, 309.16,194.048c0.00,24.936, 19.269,16.788, 27.728,62.46
		c 3.511,18.94, 20.532,0.304, 23.793,43.556c0.00,17.236-9.292,21.519-9.292,21.519s 4.72,25.504, 6.572,45.136
		c 2.289,24.46-14.132,87.648-101.72,87.648c-87.592,0.00-104.02-63.188-101.72-87.648
		c 1.847-19.632, 6.568-45.136, 6.568-45.136s-9.288-4.284-9.288-21.519c 3.248-43.253, 20.268-24.616, 23.78-43.556
		c 8.468-45.672, 27.728-37.524, 27.728-62.46c0.00-41.545-20.161-60.944-83.269-83.944
		C 56.728,87.025, 15.601,63.503, 15.601,47.463c0.00-16.028,0.00-53.896,0.00-53.896l 240.64,0.00 l 240.64,0.00 c0.00,0.00,0.00,37.868,0.00,53.896
		C 496.881,63.503, 455.749,87.025, 392.44,110.105z" />
<glyph unicode="&#x2c;" d="M 512.241,6.368c0.00,0.00-1.013,93.64-6.931,103.348c-8.807,14.456-29.327,24.389-67.427,39.764
		c-37.972,15.335-50.113,28.264-50.113,55.968c0.00,16.625, 11.592,11.188, 16.692,41.632c 2.107,12.636, 12.348,0.208, 14.308,29.041
		c0.00,11.495-5.588,14.351-5.588,14.351s 2.84,17.00, 3.949,30.088c 1.379,16.312-8.508,58.433-61.208,58.433
		c-52.712,0.00-62.592-42.12-61.213-58.433c 1.112-13.088, 3.94-30.088, 3.94-30.088s-5.58-2.856-5.58-14.351
		c 1.96-28.832, 12.192-16.404, 14.311-29.041c 5.088-30.444, 16.688-25.008, 16.688-41.632c0.00-18.836-5.64-30.84-21.179-41.424
		c 82.96-40.108, 94.08-48.288, 94.08-84.144l0.00-73.512 L 512.241,6.368 z M 261.961,135.556c-50.64,20.452-66.82,37.692-66.82,74.616
		c0.00,22.168, 15.46,14.928, 22.248,55.52c 2.812,16.84, 16.472,0.276, 19.08,38.721c0.00,15.32-7.449,19.128-7.449,19.128
		s 3.788,22.671, 5.267,40.119c 1.84,21.745-11.34,77.908-81.62,77.908c-70.268,0.00-83.46-56.163-81.608-77.908
		c 1.481-17.448, 5.259-40.119, 5.259-40.119s-7.452-3.808-7.452-19.128c 2.619-38.444, 16.271-21.88, 19.092-38.721
		c 6.788-40.592, 22.248-33.353, 22.248-55.52c0.00-36.924-16.188-54.164-66.82-74.616c-15.428-6.228-43.147-15.88-43.147-39.095
		l0.00-90.093 l 355.68,0.00 c0.00,0.00,0.00,53.296,0.00,67.552C 355.92,95.096, 312.748,115.047, 261.961,135.556z" />
<glyph unicode="&#x2d;" d="M 317.088,110.105C 253.312,133.101, 232.935,152.504, 232.935,194.048c0.00,24.936, 19.464,16.788, 28.017,62.46
		c 3.548,18.94, 20.748,0.304, 24.036,43.556c0.00,17.232-9.388,21.519-9.388,21.519s 4.776,25.504, 6.64,45.136
		c 2.319,24.46-14.28,87.648-102.80,87.648c-88.517,0.00-105.12-63.188-102.795-87.648
		c 1.865-19.632, 6.637-45.136, 6.637-45.136s-9.392-4.289-9.392-21.519c 3.296-43.253, 20.492-24.616, 24.036-43.556
		c 8.561-45.672, 28.024-37.524, 28.024-62.46c0.00-41.545-20.38-60.948-84.161-83.944c-7.676-2.768-25.984-7.072-41.548-13.788
		l0.00-102.748 l 409.60,0.00 c0.00,0.00,0.00,37.868,0.00,53.896C 409.841,63.503, 381.068,87.025, 317.088,110.105z M 435.441,249.568l0.00,76.80 l-51.20,0.00 l0.00-76.80 l-76.80,0.00 l0.00-51.20 
		l 76.80,0.00 l0.00-76.80 l 51.20,0.00 l0.00,76.80 l 76.80,0.00 l0.00,51.20 L 435.441,249.568 z" />
<glyph unicode="&#x2e;" d="M 461.041,428.768l-409.60,0.00 c-28.16,0.00-51.20-23.04-51.20-51.20l0.00-307.20 c0.00-28.16, 23.04-51.20, 51.20-51.20l 409.60,0.00 c 28.16,0.00, 51.20,23.04, 51.20,51.20l0.00,307.20 
		C 512.241,405.728, 489.201,428.768, 461.041,428.768z M 461.041,70.368l-409.60,0.00 l0.00,307.20 l 409.60,0.00 L 461.041,70.368 z M 230.64,170.208l-128.00,0.00 l0.00-46.08 l 128.00,0.00 
		L 230.64,170.208 z M 230.64,247.008l-128.00,0.00 l0.00-46.08 l 128.00,0.00 L 230.64,247.008 z M 230.64,323.808l-128.00,0.00 l0.00-46.08 l 128.00,0.00 L 230.64,323.808 z M 407.281,159.968
		c0.00,0.00-43.516,11.388-43.516,33.737c0.00,21.304, 28.156,30.264, 28.156,73.784c0.00,35.344-10.737,56.32-46.08,56.32s-46.08-20.977-46.08-56.32
		c0.00-43.52, 28.152-52.48, 28.152-73.784c0.00-22.348-43.512-33.737-43.512-33.737c-2.56,0.00-2.56-35.84-2.56-35.84l 128.00,0.00 
		C 409.841,124.128, 409.841,159.968, 407.281,159.968z" />
<glyph unicode="&#x2f;" d="M 384.241,75.488l-332.80,0.00 l0.00,230.40 l 66.428,0.00 c0.00,0.00, 17.652,22.96, 55.552,51.20L 25.841,357.088 c-14.14,0.00-25.60-11.46-25.60-25.60l0.00-281.60 
		c0.00-14.145, 11.46-25.60, 25.60-25.60l 384.00,0.00 c 14.14,0.00, 25.60,11.457, 25.60,25.60l0.00,95.908 l-51.20-42.108L 384.241,75.488 z M 342.308,253.411l0.00-90.884 l 169.932,133.139
		L 342.308,423.648l0.00-80.139 c-206.388,0.00-206.388-204.02-206.388-204.02C 194.329,235.444, 230.28,253.411, 342.308,253.411z" />
<glyph unicode="&#x30;" d="M 256.24,428.768c-70.70,0.00-128.00-57.308-128.00-128.00c0.00-122.211, 128.00-281.60, 128.00-281.60s 128.00,159.389, 128.00,281.60
		C 384.241,371.46, 326.927,428.768, 256.24,428.768z M 256.24,230.112c-38.18,0.00-69.12,30.948-69.12,69.12s 30.94,69.12, 69.12,69.12
		c 38.168,0.00, 69.12-30.948, 69.12-69.12S 294.408,230.112, 256.24,230.112z" />
<glyph unicode="&#x31;" d="M 504.108,351.356L 384.484,426.28c-5.303,3.317-11.932,3.317-17.236,0.00L 256.24,356.752l-111.012,69.528
		c-5.30,3.317-11.929,3.317-17.228,0.00L 8.368,351.356c-5.04-3.164-8.129-8.852-8.129-14.996l0.00-299.704 
		c0.00-6.30, 3.248-12.112, 8.50-15.221c 5.248-3.096, 11.688-3.017, 16.868,0.224l 111.012,69.523l 111.005-69.523
		c 5.303-3.317, 11.929-3.317, 17.236,0.00l 111.008,69.523l 111.012-69.523c 2.648-1.66, 5.628-2.491, 8.616-2.491
		c 2.844,0.00, 5.687,0.76, 8.252,2.268c 5.252,3.108, 8.492,8.92, 8.492,15.221L 512.24,336.359 
		C 512.241,342.503, 509.152,348.192, 504.108,351.356z M 119.867,121.48L 33.74,67.532L 33.74,326.463 l 86.128,53.948L 119.867,121.48 z
		 M 239.496,67.532L 153.363,121.48L 153.363,380.412 l 86.133-53.953L 239.496,67.532 z M 359.12,121.48L 272.988,67.532L 272.988,326.46 l 86.133,53.953
		L 359.12,121.48 z M 478.748,67.532L 392.62,121.48L 392.62,380.412 l 86.128-53.948L 478.749,67.532 z" />
<glyph unicode="&#x32;" d="M 252.953,469.704C 117.24,467.888, 8.689,356.40, 10.504,220.684c 1.808-135.716, 113.304-244.268, 249.02-242.461
		c 135.716,1.824, 244.268,113.312, 242.457,249.028C 500.165,362.968, 388.664,471.52, 252.953,469.704z M 258.832,29.967
		c-107.144-1.433-195.16,84.256-196.60,191.412c-1.428,107.14, 84.272,195.16, 191.415,196.589
		c 107.144,1.437, 195.168-84.26, 196.596-191.404C 451.672,119.416, 365.98,31.396, 258.832,29.967z M 139.828,108.647
		c0.00,0.00, 116.963,16.068, 166.868,65.968c 49.888,49.891, 65.96,166.852, 65.96,166.852s-116.96-16.068-166.852-65.96
		C 155.904,225.612, 139.828,108.647, 139.828,108.647z M 231.024,250.284c 20.968,20.98, 61.08,35.864, 95.472,45.108
		c-9.264-34.333-24.212-74.741-45.036-95.557c-13.92-13.932-36.509-13.941-50.436,0.00C 217.088,213.768, 217.088,236.351, 231.024,250.284z" />
<glyph unicode="&#x33;" d="M 469.708,437.439c-14.991,14.991-29.28,0.837-77.853-22.508C 261.976,352.496, 35.568,225.616, 35.568,225.616
		l 194.52-27.791l 27.788-194.528c0.00,0.00, 126.892,226.413, 189.312,356.296C 470.547,408.16, 484.696,422.448, 469.708,437.439z
		 M 423.036,387.40L 281.756,125.024L 267.417,244.26L 423.036,387.40z" />
<glyph unicode="&#x34;" d="M 256.227,444.128c-121.584,0.00-220.148-98.576-220.148-220.16c0.00-121.592, 98.564-220.16, 220.148-220.16
		c 121.596,0.00, 220.172,98.568, 220.172,220.16C 476.401,345.552, 377.824,444.128, 256.227,444.128z M 274.161,45.664l0.00,98.944 l-35.851,0.00 l0.00-98.944 
		c-84.648,8.40-151.965,75.72-160.372,160.384l 98.936,0.00 l0.00,35.851 L 77.936,241.901 c 8.408,84.648, 75.724,151.968, 160.372,160.372l0.00-98.944 
		l 35.851,0.00 l0.00,98.944 c 84.664-8.408, 151.976-75.724, 160.384-160.372L 335.591,241.901 l0.00-35.851 l 98.952,0.00 
		C 426.137,121.384, 358.824,54.075, 274.161,45.664z" />
<glyph unicode="&#x35;" d="M 384.241,147.168c-17.595,0.00-33.756-5.984-46.704-15.932L 203.923,211.397c 0.676,4.10, 1.116,8.284, 1.116,12.572
		c0.00,4.297-0.439,8.473-1.116,12.572l 133.613,80.164c 12.948-9.956, 29.108-15.937, 46.704-15.937c 42.408,0.00, 76.80,34.392, 76.80,76.80
		c0.00,42.412-34.392,76.80-76.80,76.80c-42.412,0.00-76.80-34.388-76.80-76.80c0.00-4.289, 0.439-8.468, 1.112-12.569L 174.944,284.832
		c-12.953,9.956-29.112,15.937-46.704,15.937c-42.412,0.00-76.80-34.388-76.80-76.80s 34.388-76.80, 76.80-76.80
		c 17.592,0.00, 33.752,5.976, 46.704,15.937l 133.607-80.168c-0.672-4.10-1.112-8.272-1.112-12.569c0.00-42.412, 34.388-76.80, 76.80-76.80
		c 42.408,0.00, 76.80,34.388, 76.80,76.80C 461.041,112.776, 426.649,147.168, 384.241,147.168z" />
<glyph unicode="&#x36;" d="M 437.128,373.20c-42.295,39.28-110.88,39.28-153.187,0.00l-28.72-26.676l-28.731,26.676
	c-42.295,39.28-110.88,39.28-153.176,0.00c-47.592-44.192-47.592-115.836,0.00-160.025l 181.907-168.92l 181.907,168.92
	C 484.721,257.364, 484.721,329.008, 437.128,373.20z M 410.184,239.433l-154.964-146.268L 100.26,239.433
	c-15.636,14.52-21.684,33.609-21.684,53.752c 0.004,20.144, 3.488,36.676, 19.124,51.192c 13.804,12.815, 32.344,19.884, 52.20,19.884
	s 38.396-12.188, 52.204-25.012l 53.12-46.752l 53.10,46.752c 13.816,12.825, 32.356,25.012, 52.216,25.012
	c 19.855,0.00, 38.396-7.068, 52.204-19.884c 15.631-14.516, 19.116-31.048, 19.12-51.192C 431.864,273.04, 425.816,253.952, 410.184,239.433z
	" />
<glyph unicode="&#x37;" d="M 440.292,373.196c-42.80,39.28-112.184,39.28-154.989,0.00l-29.064-26.672l-29.068,26.672
		c-42.796,39.28-112.18,39.28-154.979,0.00c-48.152-44.189-48.152-115.832,0.00-160.019l 184.048-168.92l 184.052,168.92
		C 488.44,257.364, 488.44,329.008, 440.292,373.196z" />
<glyph unicode="&#x38;" d="M 480.497,277.156L 316.336,277.156 L 255.216,449.252L 194.084,277.156L 29.937,277.156 l 133.928-101.061l-47.88-177.408l 139.232,106.368l 139.22-106.368
	l-47.872,177.408L 480.497,277.156z M 255.216,155.276L 178.084,91.236l 31.813,91.212L 136.924,241.316l 90.141-2.56l 28.152,103.416
	L 283.356,238.756l 90.141,2.56l-72.96-58.869l 31.809-91.212L 255.216,155.276z" />
<glyph unicode="&#x39;" d="M 256.24,449.248L 317.368,277.152L 481.521,277.152L 347.589,176.092L 395.468-1.312L 256.24,105.056L 117.021-1.312L 164.889,176.092L 30.961,277.152L 195.108,277.152 	z" />
<glyph unicode="&#x3a;" d="M 25.841,238.947l0.00-156.804 c0.00-15.129, 7.344-24.576, 22.82-24.576c0.00,0.00, 51.804,0.00, 79.58,0.00l0.00,204.80 L 47.964,262.368 
		C 31.432,262.368, 25.841,249.804, 25.841,238.947z M 427.232,293.088c-29.368,0.00-94.192-2.56-94.192-2.56l 5.12,79.941
		c0.00,48.961-9.336,71.099-35.888,71.099c-32.932,0.00-19.643-40.024-30.292-74.70c-10.652-34.677-68.152-104.50-109.74-104.50
		l-8.40,0.00 l0.00-204.80 c 58.748,0.00, 59.64-51.20, 112.744-51.20c 33.916,0.00, 108.088,0.00, 108.088,0.00c 53.40,0.00, 111.968,47.28, 111.968,88.228L 486.641,217.996 
		C 486.641,264.608, 467.964,293.088, 427.232,293.088z" />
<glyph unicode="&#x3b;" d="M 148.72,167.648l0.00,158.72 l-97.28,0.00 c-28.16,0.00-51.20-23.04-51.20-51.20l0.00-153.60 c0.00-28.16, 23.04-51.20, 51.20-51.20l 25.60,0.00 l0.00-76.80 l 76.80,76.80l 128.00,0.00 c 28.16,0.00, 51.20,23.04, 51.20,51.20l0.00,46.60 
		c-1.652-0.344-3.376-0.52-5.12-0.52L 148.72,167.648 z M 461.041,454.368l-230.40,0.00 c-28.16,0.00-51.20-23.04-51.20-51.20l0.00-204.80 l 179.20,0.00 l 76.80-76.80l0.00,76.80 l 25.60,0.00 
		c 28.16,0.00, 51.20,23.04, 51.20,51.20l0.00,153.60 C 512.241,431.328, 489.201,454.368, 461.041,454.368z" />
<glyph unicode="&#x3c;" d="M 409.841,403.168l-307.20,0.00 c-28.16,0.00-51.20-23.04-51.20-51.20l0.00-179.20 c0.00-28.16, 23.04-51.20, 51.20-51.20l 102.40,0.00 l 102.40-76.80l0.00,76.80 l 102.40,0.00 c 28.16,0.00, 51.20,23.04, 51.20,51.20l0.00,179.20 
		C 461.041,380.128, 438.001,403.168, 409.841,403.168z" />
<glyph unicode="&#x3d;" d="M 132.228,392.928c-41.224,0.00-74.643-34.384-74.643-76.80s 33.419-76.80, 74.643-76.80c 74.64,0.00, 24.88-148.48-74.643-148.48l0.00-35.84 
		C 235.201,55.008, 304.808,392.928, 132.228,392.928z M 347.268,392.928c-41.224,0.00-74.643-34.384-74.643-76.80s 33.419-76.80, 74.643-76.80
		c 74.64,0.00, 24.88-148.48-74.643-148.48l0.00-35.84 C 450.241,55.008, 519.848,392.928, 347.268,392.928z" />
<glyph unicode="&#x3e;" d="M 38.64,313.568l 435.20,0.00 c 14.607,0.00, 12.208,15.564, 4.94,18.10c-7.271,2.541-88.14,33.10-102.22,33.10l-23.04,0.00 l0.00,76.80 l-194.56,0.00 l0.00-76.80 
		l-23.04,0.00 c-14.08,0.00-94.952-30.56-102.22-33.10C 26.427,329.132, 24.028,313.568, 38.64,313.568z M 478.961,285.408l-445.44,0.00 
		c-14.08,0.00-28.16-16.64-28.16-30.72l0.00-89.60 c0.00-14.08, 14.08-30.72, 28.16-30.72l 50.748,0.00 l-22.587-128.00l 389.12,0.00 l-22.593,128.00l 50.753,0.00 c 14.08,0.00, 28.16,16.64, 28.16,30.72l0.00,89.60 
		C 507.121,268.768, 493.041,285.408, 478.961,285.408z M 112.88,57.568l 35.84,166.40l 215.04,0.00 l 35.84-166.40L 112.88,57.568 z" />
<glyph unicode="&#x3f;" d="M 375.308,262.547C 316.928,388.168, 286.588,435.869, 191.196,433.90c-33.968-0.699-25.808,24.60-51.708,15.001
		c-25.888-9.608-3.676-23.656-30.152-45.38C 35.028,342.532, 41.872,286.105, 76.336,151.624
		c 14.529-56.636-34.999-59.421-15.40-114.333c 14.30-40.04, 119.772-56.788, 231.052-15.503
		c 111.276,41.289, 181.52,123.248, 167.212,163.276C 439.596,239.971, 399.904,209.66, 375.308,262.547z M 279.908,55.621
		c-99.38-36.875-181.068-15.18-184.516-5.544c-5.943,16.628, 32.084,72.093, 145.704,114.252
		c 113.624,42.16, 177.032,26.524, 183.661,7.955C 428.672,161.316, 379.296,92.492, 279.908,55.621z M 247.968,145.083
		c-51.96-19.28-88.072-41.336-111.432-61.192c 16.44-14.936, 47.261-18.584, 77.976-7.187
		c 39.105,14.504, 63.112,47.804, 53.616,74.379c-0.113,0.321-0.281,0.604-0.40,0.92
		C 261.313,149.888, 254.736,147.596, 247.968,145.083z" />
<glyph unicode="&#x40;" d="M 201.443,103.284l-20.724-20.58c-17.968-17.807-47.184-17.82-65.141,0.00c-8.632,8.565-13.377,19.94-13.377,32.036
		c0.00,12.092, 4.744,23.476, 13.372,32.04l 76.288,75.688c 15.809,15.681, 45.557,38.764, 67.232,17.268
		c 9.948-9.881, 26.012-9.816, 35.888,0.128c 9.881,9.944, 9.82,26.016-0.128,35.884c-36.853,36.568-91.312,29.809-138.744-17.252
		L 79.82,182.799c-18.308-18.172-28.38-42.339-28.38-68.06s 10.072-49.884, 28.384-68.056
		c 18.836-18.692, 43.568-28.028, 68.316-28.028S 197.632,27.992, 216.48,46.695l 20.74,20.584c 9.944,9.867, 9.999,25.94, 0.12,35.884
		C 227.472,113.104, 211.393,113.16, 201.443,103.284z M 432.644,397.308c-39.581,39.272-94.917,41.404-131.555,5.052l-25.832-25.648
		c-9.952-9.871-10.012-25.936-0.132-35.884s 25.948-10.004, 35.895-0.128L 336.844,366.336c 18.98,18.844, 43.828,11.028, 60.04-5.052
		c 8.641-8.565, 13.388-19.948, 13.388-32.044c0.00-12.092-4.747-23.476-13.377-32.04L 315.501,216.456
		C 278.284,179.528, 260.824,196.864, 253.377,204.256c-9.952,9.871-26.012,9.808-35.892-0.132
		c-9.881-9.944-9.82-26.012, 0.132-35.884c 17.083-16.961, 36.588-25.368, 57.028-25.368c 25.029,0.00, 51.467,12.612, 76.613,37.569
		l 81.392,80.739c 18.304,18.176, 28.392,42.344, 28.392,68.064C 461.041,354.96, 450.952,379.128, 432.644,397.308z" />
<glyph unicode="&#x41;" d="M 472.975,354.531c-292.064-116.916-173.764,197.748-400.288,32.104l-47.36-17.009l 93.828-368.892l 51.68,0.00 l-45.956,180.681
		C 326.977,350.832, 245.156-3.185, 484.224,344.167C 489.772,352.227, 482.348,358.28, 472.975,354.531z" />
<glyph unicode="&#x42;" d="M 429.912,223.968c0.00,26.817, 16.508,47.98, 41.368,62.532c-4.476,14.968-10.412,29.304-17.712,42.80
		c-27.872-7.292-50.432,3.632-69.40,22.593c-18.964,18.968-24.769,41.532-17.473,69.408
		c-13.496,7.30-27.832,13.232-42.807,17.708c-14.548-24.864-40.828-41.368-67.649-41.368
		c-26.817,0.00-53.096,16.504-67.653,41.368c-14.968-4.469-29.304-10.408-42.80-17.708c 7.292-27.872, 1.492-50.436-17.477-69.408
		c-18.964-18.964-41.532-29.883-69.405-22.593c-7.30-13.496-13.236-27.832-17.708-42.80
		c 24.86-14.552, 41.364-35.716, 41.364-62.532c0.00-26.811-16.504-53.104-41.364-67.653c 4.472-14.972, 10.408-29.304, 17.708-42.80
		c 27.876,7.292, 50.44,1.492, 69.405-17.48c 18.959-18.959, 24.769-41.532, 17.477-69.40
		c 13.496-7.30, 27.832-13.24, 42.804-17.708c 14.556,24.856, 40.832,41.368, 67.649,41.364c 26.821,0.00, 53.10-16.508, 67.649-41.364
		c 14.976,4.472, 29.312,10.408, 42.812,17.712c-7.292,27.864-1.496,50.436, 17.467,69.395c 18.968,18.972, 41.532,29.893, 69.40,22.60
		c 7.30,13.496, 13.236,27.828, 17.712,42.80C 446.42,175.985, 429.912,197.156, 429.912,223.968z M 256.24,130.447
		c-51.649,0.00-93.516,41.867-93.516,93.52s 41.867,93.52, 93.516,93.52s 93.512-41.867, 93.512-93.52
		S 307.888,130.447, 256.24,130.447z" />
<glyph unicode="&#x43;" d="M 437.88,406.128C 394.993,449.012, 341.145,464.70, 323.993,447.544L 254.96,378.52
		c-10.468-10.471-19.599-45.516-15.408-80.992L 30.632,88.608c-12.391-12.391-2.352-42.52, 22.432-67.296
		c 24.776-24.784, 54.908-34.824, 67.296-22.44l 208.921,208.925c 35.48-4.188, 70.52,4.948, 80.992,15.412l 69.032,69.032
		C 496.453,309.392, 480.772,363.24, 437.88,406.128z M 208.132,197.336c-9.54,9.54-6.428,28.084, 6.901,41.424
		c 13.34,13.332, 31.887,16.44, 41.42,6.901c 9.52-9.524, 6.428-28.084-6.901-41.412
		C 236.212,190.911, 217.652,187.816, 208.132,197.336z M 380.943,349.184c-33.232,33.225-41.571,77.064-38.624,80.024
		c 2.959,2.959, 45.072-7.108, 78.312-40.336c 33.22-33.228, 43.191-75.44, 40.328-78.304
		C 458.104,307.708, 414.16,315.952, 380.943,349.184z" />
<glyph unicode="&#x44;" d="M 286.456,112.508c0.00,37.149, 28.148,57.684, 74.083,88.112c 56.172,37.224, 126.099,83.544, 126.099,193.488
		c0.00,9.896-8.116,17.92-18.128,17.92l-87.808,0.00 c-12.42,22.927-49.392,47.459-124.464,47.459c-75.077,0.00-112.048-24.532-124.468-47.459
		L 43.959,412.028 c-10.009,0.00-18.12-8.024-18.12-17.92c0.00-109.944, 69.92-156.263, 126.099-193.488
		c 45.932-30.428, 74.083-50.964, 74.083-88.112l0.00-33.552 C 177.788,73.596, 142.336,55.739, 142.336,34.528c0.00-25.452, 50.992-46.08, 113.904-46.08
		c 62.908,0.00, 113.904,20.628, 113.904,46.08c0.00,21.212-35.448,39.069-83.688,44.427L 286.457,112.508 z M 357.536,241.891
		c 14.529,30.728, 26.012,72.376, 27.872,134.297l 64.22,0.00 C 443.524,307.084, 401.985,272.176, 357.536,241.891z M 256.24,428.10
		c 69.944,0.048, 97.264-28.559, 97.228-39.164c0.00-10.668-27.276-39.228-97.228-39.288
		c-69.953,0.06-97.232,28.62-97.232,39.288C 158.976,399.54, 186.295,428.149, 256.24,428.10z M 62.848,376.188l 64.22,0.00 
		c 1.861-61.92, 13.344-103.568, 27.876-134.297C 110.496,272.176, 68.952,307.084, 62.848,376.188z" />
<glyph unicode="&#x45;" d="M 493.068,469.58c-2.784,8.075-11.509,12.328-19.471,9.52c-7.972-2.812-12.185-11.637-9.409-19.704
		c 23.544-68.352-23.188-119.388-58.804-146.728l-14.424,20.849c-4.828,6.972-15.656,12.775-24.06,12.90l-80.776-0.368
		c-8.40,0.132-20.916-3.76-27.804-8.644L 20.328,168.74c-11.528-8.167-14.336-24.248-6.264-35.924l 108.171-156.356
		c 8.072-11.668, 21.044-10.272, 32.571-2.103l 237.996,168.66c 6.884,4.883, 14.768,15.456, 17.54,23.496l 25.296,80.544
		c 2.757,8.039, 1.076,20.324-3.756,27.296l-8.792,12.704C 470.968,324.056, 520.645,389.523, 493.068,469.58z M 382.34,230.068
		c-18.447-13.064-43.875-8.52-56.784,10.14c-12.92,18.68-8.44,44.40, 10.016,57.48
		c 14.64,10.376, 33.656,9.62, 47.344-0.453c-6.893-4.199-11.616-6.616-12.519-7.048c-7.632-3.649-10.891-12.865-7.304-20.584
		c 2.612-5.604, 8.112-8.888, 13.852-8.888c 2.18,0.00, 4.40,0.48, 6.503,1.481c 4.908,2.34, 10.188,5.168, 15.692,8.459
		C 401.624,255.476, 395.64,239.492, 382.34,230.068z" />
<glyph unicode="&#x46;" d="M 256.24,275.168c-42.42,0.00-76.80-34.396-76.80-76.80c0.00-42.42, 34.38-76.80, 76.80-76.80c 42.408,0.00, 76.80,34.38, 76.80,76.80
		C 333.041,240.772, 298.649,275.168, 256.24,275.168z M 461.041,351.968l-61.44,0.00 c-8.452,0.00-17.551,6.556-20.22,14.567l-15.88,47.66
		c-2.68,8.016-11.772,14.572-20.22,14.572l-174.08,0.00 c-8.452,0.00-17.551-6.556-20.22-14.572l-15.88-47.66
		c-2.68-8.012-11.772-14.567-20.22-14.567l-61.44,0.00 c-28.16,0.00-51.20-23.04-51.20-51.20l0.00-230.40 c0.00-28.16, 23.04-51.20, 51.20-51.20l 409.60,0.00 c 28.16,0.00, 51.20,23.04, 51.20,51.20l0.00,230.40 
		C 512.241,328.928, 489.201,351.968, 461.041,351.968z M 256.24,70.368c-70.692,0.00-128.00,57.308-128.00,128.00c0.00,70.688, 57.308,128.00, 128.00,128.00
		c 70.68,0.00, 128.00-57.312, 128.00-128.00C 384.241,127.675, 326.92,70.368, 256.24,70.368z M 443.121,264.964c-9.896,0.00-17.92,8.016-17.92,17.92
		c0.00,9.892, 8.024,17.92, 17.92,17.92c 9.90,0.00, 17.92-8.028, 17.92-17.92C 461.041,272.98, 453.02,264.964, 443.121,264.964z" />
<glyph unicode="&#x47;" d="M 312.792,166.90C 240.183,94.28, 130.172,81.956, 44.784,129.792c 9.841-17.564, 22.164-34.113, 37.104-49.053
		c 87.56-87.56, 229.512-87.56, 317.064,0.00c 87.556,87.556, 87.56,229.512,0.00,317.064c-14.94,14.944-31.484,27.268-49.048,37.109
		C 397.744,349.52, 385.412,239.513, 312.792,166.90z" />
<glyph unicode="&#x48;" d="M 443.407,362.588C 363.963,415.428, 274.724,433.693, 168.92,403.36C 86.328,379.68, 10.639,285.759, 4.78,205.293
		C-2.14,110.212, 71.925,28.76, 202.376,28.896c 140.643,0.144, 193.296,67.68, 194.457,88.20
		c 1.152,20.52-54.864,58.485-18.824,97.48c 45.176,48.885, 85.395,7.236, 109.772,13.092
		C 512.16,233.532, 524.50,308.624, 443.407,362.588z M 280.232,124.06c-21.272,0.00-38.512,17.192-38.512,38.40s 17.24,38.40, 38.512,38.40
		s 38.508-17.192, 38.508-38.40S 301.505,124.06, 280.232,124.06z" />
<glyph unicode="&#x49;" d="M 135.42,373.376C 37.577,316.599, 43.191,224.12, 46.56,189.912C 172.94,339.616, 361.984,332.356, 361.984,332.356
		S 94.008,240.436, 15.304,56.112c-6.217-14.556, 29.169-33.476, 37.24-16.276c 24.10,51.265, 57.68,89.704, 57.68,89.704
		c 49.544-18.436, 135.256-40.044, 196.008,2.703c 80.688,56.788, 72.444,182.668, 187.632,243.96
		C 520.769,390.517, 268.076,450.356, 135.42,373.376z" />
<glyph unicode="&#x4a;" d="M 299.724,465.116l-41.068,0.00 l0.00-334.628 c-22.708,8.732-52.092,8.864-81.076-1.68
		c-51.924-18.896-82.868-64.867-69.112-102.656c 13.761-37.80, 67.013-53.112, 118.936-34.224
		c 44.105,16.052, 72.956,51.624, 72.251,85.131l 0.069,273.664c 71.611-11.289, 76.508-101.808, 67.932-127.192
		c-3.255-9.62, 2.48-16.82, 13.297,0.00C 458.164,343.644, 299.724,396.632, 299.724,465.116z" />
<glyph unicode="&#x4b;" d="M 464.16,386.092c-7.571,6.539-48.80,37.744-56.492,44.396c-7.696,6.648-19.74,8.52-28.216,8.52L 133.04,439.008 
		c-8.473,0.00-20.52-1.872-28.212-8.52c-7.696-6.652-48.92-37.856-56.496-44.396c-7.577-6.544-13.884-16.416-11.864-30.496
		c 2.028-14.08, 49.572-332.101, 49.572-332.101c 2.677-8.009, 11.796-14.567, 20.272-14.567l 299.872,0.00 c 8.473,0.00, 17.592,6.56, 20.268,14.567
		c0.00,0.00, 47.543,318.021, 49.572,332.101C 478.048,369.675, 471.736,379.549, 464.16,386.092z M 256.248,163.332
		c-83.141,0.00-100.952,117.684-104.632,141.936l 47.012,0.00 c 7.088-35.372, 23.183-95.856, 57.62-95.856
		c 34.432,0.00, 50.528,60.484, 57.62,95.856l 47.008,0.00 C 357.196,281.015, 339.387,163.332, 256.248,163.332z M 76.104,351.968l 56.464,58.88
		l 247.351,0.00 l 56.472-58.88L 76.104,351.968 z" />
<glyph unicode="&#x4c;" d="M 137.187-16.672l 51.20,0.00 l 114.885,204.80l 132.169,0.00 c0.00,0.00, 76.80,0.00, 76.80,35.84s-76.80,35.84-76.80,35.84L 303.272,259.808 l-114.885,204.80l-51.20,0.00 l 63.684-204.80L 109.048,259.808 
		l-57.608,51.20l-51.20,0.00 l 40.96-87.04l-40.96-87.04l 51.20,0.00 l 57.608,51.20l 91.824,0.00 L 137.187-16.672z" />
<glyph unicode="&#x4d;" d="M 253.096,459.461C 123.027,457.732, 19.009,350.884, 20.74,220.819c 1.744-130.08, 108.588-234.087, 238.644-232.349
		c 130.064,1.733, 234.083,108.58, 232.356,238.64C 489.992,357.192, 383.14,461.204, 253.096,459.461z M 253.50,428.752
		c 35.08,0.468, 68.208-7.925, 97.28-23.08l-31.70-52.835c-18.98,9.276-40.30,14.492-62.84,14.492
		c-22.543,0.00-43.872-5.22-62.848-14.492l-31.685,52.801C 189.216,419.976, 220.368,428.312, 253.50,428.752z M 127.368,161.124
		l-52.791-31.672c-14.336,27.496-22.676,58.648-23.116,91.78c-0.472,35.076, 7.925,68.205, 23.08,97.276l 52.828-31.704
		c-9.268-18.972-14.489-40.291-14.489-62.837C 112.88,201.42, 118.10,180.10, 127.368,161.124z M 258.98,19.188
		c-35.08-0.472-68.213,7.925-97.28,23.084l 31.70,52.824c 18.976-9.268, 40.296-14.489, 62.84-14.489
		c 22.54,0.00, 43.86,5.212, 62.832,14.484l 31.681-52.796C 323.259,27.963, 292.10,19.632, 258.98,19.188z M 256.24,111.328
		c-62.212,0.00-112.64,50.428-112.64,112.64c0.00,62.208, 50.428,112.64, 112.64,112.64c 62.208,0.00, 112.64-50.432, 112.64-112.64
		C 368.881,161.756, 318.449,111.328, 256.24,111.328z M 385.108,161.124c 9.272,18.976, 14.492,40.296, 14.492,62.844
		c0.00,22.543-5.22,43.864-14.492,62.837l 52.801,31.685c 14.336-27.50, 22.671-58.653, 23.112-91.776
		c 0.468-35.083-7.925-68.216-23.084-97.284L 385.108,161.124z" />
<glyph unicode="&#x4e;" d="M 305.48,459.488c-97.552,0.00-177.832-75.352-185.64-170.861C 61.889,266.02, 20.721,209.632, 20.721,143.816
		c0.00-85.676, 69.741-155.367, 155.468-155.367c 65.976,0.00, 122.485,41.292, 145.012,99.38
		C 416.588,95.836, 491.761,175.964, 491.761,273.324C 491.761,375.976, 408.20,459.488, 305.48,459.488z M 176.188,40.236
		c-57.143,0.00-103.64,46.46-103.64,103.581c0.00,37.936, 20.532,71.172, 51.061,89.212
		c 15.631-70.492, 71.361-126.091, 141.96-141.552C 247.544,60.848, 214.24,40.236, 176.188,40.236z M 177.828,247.356
		c 55.76-0.868, 100.96-45.963, 101.953-101.661C 228.627,155.963, 188.22,196.272, 177.828,247.356z M 331.633,145.777
		c-1.053,84.228-69.504,152.521-153.824,153.38c 12.032,59.452, 64.70,104.331, 127.672,104.331
		c 71.819,0.00, 130.26-58.379, 130.26-130.165C 435.74,210.488, 390.977,157.908, 331.633,145.777z M 73.968,349.027
		c 29.28,0.00, 53.10,23.80, 53.10,53.065c0.00,29.256-23.82,53.06-53.10,53.06S 20.868,431.349, 20.868,402.092
		C 20.868,372.828, 44.688,349.027, 73.968,349.027z M 73.968,431.368c 16.16,0.00, 29.292-13.136, 29.292-29.276s-13.132-29.276-29.292-29.276
		c-16.148,0.00-29.284,13.136-29.284,29.276S 57.82,431.368, 73.968,431.368z" />
<glyph unicode="&#x4f;" d="M 256.24,367.328c-167.944,0.00-256.00-123.74-256.00-143.36s 88.056-143.36, 256.00-143.36s 256.00,123.74, 256.00,143.36S 424.184,367.328, 256.24,367.328z
		 M 256.24,113.689c-62.84,0.00-113.781,49.368-113.781,110.28c0.00,60.908, 50.94,110.28, 113.781,110.28
		s 113.781-49.372, 113.781-110.28C 370.02,163.057, 319.079,113.689, 256.24,113.689z M 256.24,223.968
		c-10.42,11.44, 16.984,55.139,0.00,55.139c-31.416,0.00-56.892-24.692-56.892-55.139c0.00-30.452, 25.476-55.139, 56.892-55.139
		s 56.887,24.689, 56.887,55.139C 313.128,237.956, 265.10,214.247, 256.24,223.968z" />
<glyph unicode="&#x50;" d="M 256.227,459.488c-130.059,0.00-235.508-105.456-235.508-235.52c0.00-130.077, 105.448-235.52, 235.508-235.52
			c 130.08,0.00, 235.532,105.443, 235.532,235.52C 491.761,354.032, 386.308,459.488, 256.227,459.488z M 256.227,39.648
			c-101.779,0.00-184.308,82.524-184.308,184.32c0.00,101.80, 82.528,184.32, 184.308,184.32c 101.812,0.00, 184.332-82.52, 184.332-184.32
			C 440.561,122.171, 358.041,39.648, 256.227,39.648zM 274.161,357.088L 238.307,357.088L 238.307,216.54L 325.489,129.376L 350.829,154.716L 274.161,231.392 		z" />
<glyph unicode="&#x51;" d="M 409.841,294.547l-15.36,0.00 c-5.632,0.00-10.24-4.612-10.24-10.24l0.00-70.58 c0.00-34.231-26.96-92.16-128.00-92.16c-101.048,0.00-128.00,57.929-128.00,92.16L 128.241,284.307 
			c0.00,5.628-4.616,10.24-10.24,10.24l-15.36,0.00 c-5.632,0.00-10.24-4.612-10.24-10.24l0.00-70.58 c0.00-57.26, 42.057-118.539, 138.24-126.98l0.00-67.58 l-66.56,0.00 
			c-5.632,0.00-10.24-4.60-10.24-10.24l0.00-30.72 c0.00-5.632, 4.608-10.24, 10.24-10.24l 184.32,0.00 c 5.624,0.00, 10.24,4.608, 10.24,10.24l0.00,30.72 c0.00,5.64-4.616,10.24-10.24,10.24l-66.56,0.00 L 281.841,86.748 
			c 96.18,8.44, 138.24,69.72, 138.24,126.98L 420.081,284.307 C 420.081,289.936, 415.463,294.547, 409.841,294.547zM 256.24,172.768c 60.068,0.00, 76.80,24.668, 76.80,40.96L 333.041,294.547 l-153.60,0.00 l0.00-80.82 C 179.44,197.435, 196.151,172.768, 256.24,172.768zM 333.041,439.008c0.00,16.30-16.732,40.96-76.80,40.96c-60.087,0.00-76.80-24.66-76.80-40.96l0.00-108.62 l 153.60,0.00 L 333.041,439.008 z" />
<glyph unicode="&#x52;" d="M 435.441,403.168l-23.04,0.00 l0.00-51.20 l-81.92,0.00 l0.00,51.20 l-148.48,0.00 l0.00-51.20 l-81.92,0.00 l0.00,51.20 l-23.04,0.00 c-28.16,0.00-51.20-23.04-51.20-51.20l0.00-307.20 c0.00-28.16, 23.04-51.20, 51.20-51.20l 358.40,0.00 
		c 28.16,0.00, 51.20,23.04, 51.20,51.20l0.00,307.20 C 486.641,380.128, 463.601,403.168, 435.441,403.168z M 435.441,44.768l-358.40,0.00 l0.00,204.80 l 358.40,0.00 L 435.441,44.768 z
		 M 158.96,454.368l-35.84,0.00 l0.00-87.04 l 35.84,0.00 L 158.96,454.368 z M 389.361,454.368l-35.84,0.00 l0.00-87.04 l 35.84,0.00 L 389.361,454.368 z" />
<glyph unicode="&#x53;" d="M 174.388-6.396c-4.96,3.228, 80.736,183.296, 77.78,191.20c-2.952,7.888-93.808,36.776-98.248,50.672
		C 149.479,249.376, 333.308,458.34, 338.14,454.308c 4.82-4.027-80.109-185.30-77.78-191.188
		c 2.319-5.892, 95.44-35.984, 98.248-50.677C 361.42,197.741, 179.347-9.628, 174.388-6.396z" />
<glyph unicode="&#x54;" d="M 399.601,362.781c0.00,54.784,0.00,60.136,0.00,60.136c0.00,20.196-64.183,57.052-143.36,57.052c-79.18,0.00-143.36-36.856-143.36-57.052
		c0.00,0.00,0.00-5.351,0.00-60.136c0.00-54.776, 99.244-100.027, 99.244-138.812c0.00-38.788-99.244-84.037-99.244-138.817s0.00-60.136,0.00-60.136
		c0.00-20.196, 64.18-57.048, 143.36-57.048c 79.176,0.00, 143.36,36.853, 143.36,57.048c0.00,0.00,0.00,5.357,0.00,60.136S 300.353,185.18, 300.353,223.968
		C 300.353,262.752, 399.601,308.004, 399.601,362.781z M 152.324,420.356c 17.812,11.236, 51.204,27.704, 105.315,27.704
		s 102.56-27.704, 102.56-27.704c 3.62-2.204, 17.868-9.82, 8.119-15.591c-21.472-12.716-63.452-26.104-112.08-26.104
		c-48.632,0.00-89.208,14.76-110.68,27.476C 135.808,411.912, 152.324,420.356, 152.324,420.356z M 269.071,223.968
		c0.00-30.54, 25.504-50.212, 52.509-76.456c 19.727-19.176, 46.74-45.429, 46.74-62.36l0.00-34.00 
		c-24.812,12.364-99.112,24.468-99.112,64.096c0.00,20.064-25.94,20.064-25.94,0.00c0.00-39.628-74.299-51.732-99.108-64.096l0.00,34.00 
		c0.00,16.932, 27.008,43.184, 46.74,62.36c 27.00,26.244, 52.504,45.916, 52.504,76.456S 217.90,274.176, 190.90,300.42
		c-19.732,19.176-46.74,45.432-46.74,62.36l-1.211,25.592c 26.272-14.14, 67.909-27.633, 113.291-27.633
		s 87.216,13.492, 113.48,27.633l-1.40-25.592c0.00-16.928-27.012-43.184-46.74-62.36C 294.576,274.176, 269.071,254.508, 269.071,223.968
		z" />
<glyph unicode="&#x55;" d="M 61.68,418.528L 61.68,357.888 c 181.408,0.00, 328.473-147.072, 328.473-328.48l 60.648,0.00 
		C 450.801,244.312, 276.58,418.528, 61.68,418.528z M 61.68,297.245l0.00-60.64 c 114.424,0.00, 207.188-92.768, 207.188-207.196L 329.508,29.408 
		C 329.508,177.328, 209.601,297.245, 61.68,297.245z M 119.784,145.636c-32.084,0.00-58.104-26.024-58.104-58.112
		c0.00-32.104, 26.02-58.116, 58.104-58.116c 32.104,0.00, 58.123,26.012, 58.123,58.116
		C 177.908,119.611, 151.888,145.636, 119.784,145.636z" />
<glyph unicode="&#x56;" d="M 404.721,287.968l-46.08,0.00 l0.00,35.84 c0.00,74.168-34.168,117.76-102.40,117.76c-68.235,0.00-102.40-43.593-102.40-117.76l0.00-35.84 l-51.20,0.00 c-14.14,0.00-25.60-16.581-25.60-30.72
		l0.00-199.68 c0.00-14.08, 10.964-29.14, 24.364-33.46l 30.628-9.881c 13.40-4.327, 35.888-7.86, 49.968-7.86l 148.48,0.00 
		c 14.08,0.00, 36.564,3.532, 49.964,7.86l 30.628,9.881c 13.40,4.32, 24.368,19.38, 24.368,33.46l0.00,199.68 
		C 435.441,271.389, 418.86,287.968, 404.721,287.968z M 205.04,334.048c0.00,36.988, 20.408,56.32, 51.20,56.32c 30.789,0.00, 51.20-19.332, 51.20-56.32l0.00-46.08 
		l-102.40,0.00 L 205.041,334.048 z" />
<glyph unicode="&#x57;" d="M 404.721,275.168l-46.08,0.00 l0.00,61.44 c0.00,74.168-34.16,117.76-102.40,117.76s-102.40-43.593-102.40-117.76l0.00-10.24 l 51.20,0.00 l0.00,20.48 c0.00,36.988, 20.408,56.32, 51.20,56.32
		c 30.789,0.00, 51.20-19.332, 51.20-56.32l0.00-71.68 l-204.80,0.00 c-14.14,0.00-25.60-16.581-25.60-30.72l0.00-199.68 c0.00-14.08, 10.964-29.136, 24.364-33.46l 30.628-9.881
		c 13.40-4.327, 35.888-7.86, 49.968-7.86l 148.48,0.00 c 14.08,0.00, 36.564,3.532, 49.964,7.86l 30.628,9.881
		c 13.40,4.324, 24.368,19.38, 24.368,33.46l0.00,199.68 C 435.441,258.589, 418.86,275.168, 404.721,275.168z" />
<glyph unicode="&#x58;" d="M 212.08,44.772c-11.136,0.00-21.68,5.208-28.448,14.152L 92.144,179.731c-11.904,15.719-8.80,38.089, 6.908,49.996
			c 15.74,11.904, 38.10,8.788, 50.00-6.912l 60.171-79.452l 151.336,242.984c 10.424,16.716, 32.424,21.832, 49.172,11.432
			c 16.732-10.416, 21.84-32.432, 11.42-49.16L 242.384,61.593c-6.212-9.98-16.932-16.252-28.672-16.783
			C 213.16,44.781, 212.624,44.772, 212.08,44.772z" />
<glyph unicode="&#x59;" d="M 367.564,143.291l-70.597,80.676l 70.597,80.68c 11.996,11.996, 11.996,31.448,0.00,43.444
		c-12.004,11.996-31.456,11.996-43.452-0.004L 256.24,270.512l-67.876,77.576c-11.996,12.00-31.444,12.00-43.452,0.004
		c-11.992-11.996-11.992-31.448,0.00-43.444l 70.597-80.68l-70.597-80.676c-11.992-12.00-11.992-31.448-0.004-43.444
		c 12.00-12.00, 31.452-12.00, 43.457,0.00l 67.876,77.572l 67.872-77.572c 12.007-12.00, 31.456-12.00, 43.457,0.00
		C 379.56,111.844, 379.56,131.292, 367.564,143.291z" />
<glyph unicode="&#x5a;" d="M 256.24,439.008c-118.768,0.00-215.04-96.292-215.04-215.04c0.00-118.773, 96.272-215.04, 215.04-215.04c 118.76,0.00, 215.04,96.267, 215.04,215.04
		C 471.281,342.716, 375.00,439.008, 256.24,439.008z M 385.508,250.137l 0.011-52.341l-258.56,0.00 L 126.96,250.128 L 385.508,250.137z" />
<glyph unicode="&#x5b;" d="M 256.24,439.008c-118.768,0.00-215.04-96.292-215.04-215.04c0.00-118.773, 96.272-215.04, 215.04-215.04c 118.752,0.00, 215.04,96.267, 215.04,215.04
		C 471.281,342.716, 374.992,439.008, 256.24,439.008z M 282.408,197.796L 282.408,94.684 L 230.071,94.684 L 230.071,197.796 L 126.96,197.796 L 126.96,250.128 l 103.112,0.00 l-0.004,103.105
		l 52.341,0.011l0.00-103.112 l 103.099,0.004l 0.011-52.341L 282.408,197.795 z" />
<glyph unicode="&#x5c;" d="M 256.24,439.008c-118.773,0.00-215.04-96.292-215.04-215.04c0.00-118.773, 96.267-215.04, 215.04-215.04c 118.748,0.00, 215.04,96.267, 215.04,215.04
		C 471.281,342.716, 374.988,439.008, 256.24,439.008z M 300.488,223.968l 78.352-78.347l-44.252-44.244L 256.248,179.716L 177.901,101.372
		l-44.24,44.244L 212.00,223.964L 133.661,302.292l 44.24,44.264l 78.34-78.34l 78.34,78.332l 44.248-44.24L 300.488,223.968z" />
<glyph unicode="&#x5d;" d="M 389.361,249.568l-266.24,0.00 c-14.14,0.00-15.36-11.46-15.36-25.60s 1.221-25.60, 15.36-25.60l 266.24,0.00 c 14.14,0.00, 15.36,11.46, 15.36,25.60
		S 403.50,249.568, 389.361,249.568z" />
<glyph unicode="&#x5e;" d="M 389.361,249.568l-107.52,0.00 l0.00,107.52 c0.00,14.14-11.46,15.36-25.60,15.36s-25.60-1.221-25.60-15.36l0.00-107.52 l-107.52,0.00 c-14.14,0.00-15.36-11.46-15.36-25.60s 1.221-25.60, 15.36-25.60
		l 107.52,0.00 l0.00-107.52 c0.00-14.14, 11.46-15.36, 25.60-15.36s 25.60,1.221, 25.60,15.36l0.00,107.52 l 107.52,0.00 c 14.14,0.00, 15.36,11.46, 15.36,25.60S 403.50,249.568, 389.361,249.568z" />
<glyph unicode="&#x5f;" d="M 256.227,459.488c-130.067,0.00-235.508-105.453-235.508-235.52c0.00-130.08, 105.44-235.52, 235.508-235.52
		c 130.08,0.00, 235.532,105.44, 235.532,235.52C 491.761,354.037, 386.308,459.488, 256.227,459.488z M 382.98,350.651l-0.06,0.055
		C 382.94,350.688, 382.961,350.672, 382.98,350.651z M 77.04,223.968c0.00,98.968, 80.227,179.20, 179.188,179.20
		c 43.032,0.00, 82.512-15.18, 113.412-40.459L 117.50,110.567C 92.219,141.455, 77.04,180.936, 77.04,223.968z M 129.50,97.284
		l 0.048-0.055C 129.528,97.248, 129.52,97.261, 129.50,97.284z M 256.227,44.768c-43.028,0.00-82.501,15.18-113.389,40.452
		l 252.141,252.148c 25.281-30.892, 40.459-70.371, 40.459-113.40C 435.441,124.997, 355.208,44.768, 256.227,44.768z" />
<glyph unicode="&#x60;" d="M 318.508,479.968c 34.28,0.00, 51.42-23.388, 51.42-50.121c0.00-33.397-29.768-64.28-68.56-64.28
		c-32.48,0.00-51.427,19.208-50.528,50.928C 250.84,443.228, 273.389,479.968, 318.508,479.968z M 212.94-32.032
		c-27.073,0.00-46.921,16.699-27.973,90.188l 31.08,130.34c 5.412,20.876, 6.30,29.22,0.00,29.22c-8.129,0.00-43.268-14.42-64.048-28.62
		l-13.52,22.552c 65.861,55.94, 141.628,88.748, 174.099,88.748c 27.06,0.00, 31.58-32.568, 18.048-82.68l-35.58-137.008
		c-6.32-24.212-3.599-32.56, 2.699-32.56c 8.119,0.00, 34.753,10.049, 60.912,30.928l 15.34-20.879
		C 309.94-6.944, 240.008-32.032, 212.94-32.032z" />
<glyph unicode="&#x61;" d="M 253.096,459.468C 123.032,457.728, 19.016,350.867, 20.74,220.796c 1.744-130.008, 108.588-234.06, 238.652-232.328
		c 130.04,1.748, 234.08,108.609, 232.349,238.668C 490.003,357.156, 383.14,461.204, 253.096,459.468z M 279.20,380.98
		c 23.944,0.00, 31.016-13.892, 31.016-29.772c0.00-19.852-15.892-38.199-42.992-38.199c-22.68,0.00-33.473,11.412-32.841,30.26
		C 234.384,359.152, 247.688,380.98, 279.20,380.98z M 217.82,76.768c-16.359,0.00-28.347,9.924-16.896,53.588l 18.764,77.44
		c 3.265,12.412, 3.816,17.372,0.00,17.372c-4.904,0.00-26.144-8.572-38.688-17.012l-8.176,13.40
		C 212.624,254.793, 258.392,274.288, 278.016,274.288c 16.352,0.00, 19.08-19.352, 10.905-49.12l-21.496-81.412
		c-3.816-14.388-2.176-19.348, 1.632-19.348c 4.912,0.00, 20.992,5.968, 36.801,18.38l 9.264-12.412
		C 276.417,91.676, 234.167,76.768, 217.82,76.768z" />
<glyph unicode="&#x62;" d="M 360.935,422.78c-29.192,21.057-65.851,31.588-109.971,31.588c-33.58,0.00-61.90-7.42-84.933-22.22
		c-36.512-23.20-55.932-62.581-58.272-118.133l 84.632,0.00 c0.00,16.172, 4.728,31.759, 14.168,46.78
		c 9.444,15.012, 25.468,22.513, 48.068,22.513c 22.981,0.00, 38.813-6.096, 47.468-18.272c 8.668-12.188, 13.004-25.688, 13.004-40.50
		c0.00-12.865-6.46-24.66-14.24-35.38c-4.279-6.244-9.924-11.988-16.932-17.248c0.00,0.00-45.904-29.44-66.048-53.088
		c-11.696-13.724-12.74-34.264-13.776-63.736c-0.072-2.096, 0.728-6.428, 8.072-6.428s 59.296,0.00, 65.828,0.00
		s 7.896,4.872, 7.98,6.977c 0.46,10.741, 1.672,16.216, 3.62,22.412c 3.704,11.704, 13.764,21.928, 25.056,30.705l 23.30,16.08
		c 21.028,16.38, 37.804,29.828, 45.208,40.36c 12.661,17.339, 21.552,38.688, 21.552,64.029
		C 404.721,370.536, 390.119,401.727, 360.935,422.78z M 249.604,97.928c-29.172,0.868-53.24-19.313-54.155-50.952
		c-0.907-31.628, 21.98-52.52, 51.152-53.38c 30.46-0.904, 53.872,18.619, 54.788,50.252
		C 302.30,75.488, 280.064,97.028, 249.604,97.928z" />
<glyph unicode="&#x63;" d="M 253.096,459.468C 123.032,457.728, 19.016,350.867, 20.74,220.796c 1.744-130.008, 108.588-234.06, 238.652-232.328
		c 130.04,1.74, 234.08,108.603, 232.349,238.668C 490.003,357.156, 383.14,461.196, 253.096,459.468z M 252.40,80.608l-0.008,0.00 
		l-1.296,0.019c-20.027,0.592-34.147,15.349-33.576,35.08c 0.56,19.393, 15.02,33.473, 34.384,33.473l 1.164-0.015
		c 20.588-0.612, 34.552-15.217, 33.972-35.516C 286.468,94.196, 272.228,80.608, 252.40,80.608z M 336.648,247.82
		c-4.708-6.688-15.068-15.001-28.124-25.168l-14.372-9.921c-7.888-6.136-12.644-11.904-14.439-17.58
		c-1.408-4.469-2.096-5.651-2.212-14.745l-0.029-2.312L 222.60,178.095 l 0.16,4.644c 0.664,19.087, 1.14,30.316, 9.044,39.596
		c 12.416,14.572, 39.788,32.20, 40.949,32.948c 3.928,2.952, 7.236,6.32, 9.696,9.908c 5.756,7.94, 8.312,14.197, 8.312,20.337
		c0.00,8.524-2.536,16.408-7.533,23.428c-4.809,6.776-13.944,10.208-27.148,10.208c-13.10,0.00-22.075-4.156-27.448-12.687
		c-5.512-8.769-8.309-17.979-8.309-27.388l0.00-2.34 L 163.744,276.748 l 0.104,2.44c 1.46,34.656, 13.824,59.608, 36.752,74.177
		c 14.408,9.264, 32.325,13.963, 53.232,13.963c 27.377,0.00, 50.48-6.652, 68.677-19.771c 18.432-13.287, 27.776-33.20, 27.776-59.165
		C 350.284,273.868, 345.70,260.22, 336.648,247.82z" />
<glyph unicode="&#x64;" d="M 499.724,32.456L 271.696,432.644c-3.145,5.512-9.052,8.924-15.463,8.924c-6.404,0.00-12.313-3.412-15.456-8.924
		L 12.764,32.456c-3.096-5.42-3.044-12.047, 0.14-17.42c 3.181-5.368, 9.008-8.668, 15.312-8.668l 456.049,0.00 
		c 6.288,0.00, 12.124,3.30, 15.312,8.668C 502.752,20.408, 502.803,27.036, 499.724,32.456z M 287.28,57.568L 225.192,57.568 l0.00,51.20 l 62.088,0.00 
		L 287.28,57.568 z M 287.28,147.175L 225.192,147.175 l0.00,153.60 l 62.088,0.00 L 287.28,147.175 z" />
<glyph unicode="&#x65;" d="M 224.836,433.888c 113.808,0.00, 206.332-91.165, 209.12-204.676l 62.908,0.00 l-94.164-104.96l-94.164,104.96l 73.104,0.00 
			c-2.764,84.52-71.884,152.196-156.804,152.196c-86.675,0.00-156.94-70.484-156.94-157.44s 70.264-157.44, 156.94-157.44
			c 34.761,0.00, 66.86,11.356, 92.865,30.544l 35.984-38.508c-35.524-27.88-80.248-44.515-128.848-44.515
			c-115.573,0.00-209.251,93.981-209.251,209.92C 15.584,339.90, 109.264,433.888, 224.836,433.888z" />
<glyph unicode="&#x66;" d="M 287.601,433.888c-113.811,0.00-206.332-91.165-209.12-204.676L 15.572,229.212 l 94.168-104.956L 203.90,229.212L 130.80,229.212 
			c 2.761,84.52, 71.884,152.196, 156.80,152.196c 86.68,0.00, 156.94-70.492, 156.94-157.44c0.00-86.952-70.261-157.44-156.94-157.44
			c-34.761,0.00-66.86,11.36-92.859,30.544l-35.992-38.504c 35.532-27.884, 80.252-44.52, 128.852-44.52
			c 115.568,0.00, 209.251,93.981, 209.251,209.92S 403.168,433.888, 287.601,433.888z" />
<glyph unicode="&#x67;" d="M 386.588,308.883l 18.096,0.00 l0.00-51.524 l 107.52,92.16l-107.52,92.16l0.00-61.116 l-18.096,0.00 c-94.56,0.00-147.88-70.075-194.919-131.90
	c-42.308-55.60-78.84-103.621-137.881-103.621L 0.204,145.043 l0.00-71.68 l 53.584,0.00 c 94.573,0.00, 147.88,70.072, 194.932,131.90
	C 291.02,260.864, 327.56,308.883, 386.588,308.883z M 138.727,263.724c 4.027,5.216, 8.092,10.552, 12.196,15.944
	c 9.999,13.144, 20.58,27.032, 32.032,40.852c-33.812,31.596-74.624,54.923-129.168,54.923L 0.204,375.444 l0.00-71.68 l 53.584,0.00 
	C 87.764,303.763, 114.275,287.812, 138.727,263.724z M 404.684,139.923l-18.096,0.00 c-36.023,0.00-63.664,17.935-89.36,44.515
	c-2.575-3.364-5.16-6.756-7.76-10.177c-11.289-14.84-23.432-30.76-36.832-46.516
	c 34.736-33.90, 76.808-59.504, 133.953-59.504l 18.096,0.00 l0.00-61.44 l 107.52,92.16l-107.52,92.16L 404.684,139.923 z" />
<glyph unicode="&#x68;" d="M 422.176,321.248l-276.48,0.00 l0.00,56.32 l-107.52-92.16l 107.52-92.16l0.00,56.32 l 256.00,0.00 l0.00-107.52 l-332.80,0.00 l0.00-71.68 l 353.28,0.00 c 28.28,0.00, 51.20,22.92, 51.20,51.20l0.00,148.48 
			C 473.376,298.328, 450.457,321.248, 422.176,321.248z" />
<glyph unicode="&#x69;" d="M 116.256,147.168l 207.36,0.00 l0.00-76.80 l 122.88,112.64l-122.88,112.64l0.00-76.80 l-186.88,0.00 l0.00,158.72 l-71.68,0.00 l0.00-179.20 C 65.056,170.087, 87.976,147.168, 116.256,147.168z" />
<glyph unicode="&#x6a;" d="M 132.889,142.048l0.00,133.12 l 61.44,0.00 l-97.28,102.40l-97.28-102.40l 61.44,0.00 l0.00-153.60 c0.00-28.28, 22.92-51.20, 51.20-51.20l 199.68,0.00 l-65.56,71.68L 132.889,142.048 z
		 M 450.329,172.768l0.00,153.60 c0.00,28.28-22.92,51.20-51.20,51.20l-199.68,0.00 l 65.56-71.68l 113.64,0.00 l0.00-133.12 l-61.44,0.00 l 97.28-102.40l 97.28,102.40L 450.329,172.768 z" />
<glyph unicode="&#x6b;" d="M 409.348,249.568l-307.20,0.00 c-14.14,0.00-25.60-11.46-25.60-25.60s 11.46-25.60, 25.60-25.60l 307.20,0.00 c 14.14,0.00, 25.60,11.46, 25.60,25.60
		S 423.489,249.568, 409.348,249.568z M 102.148,300.768l 307.20,0.00 c 14.14,0.00, 25.60,11.46, 25.60,25.60s-11.46,25.60-25.60,25.60l-307.20,0.00 
		c-14.14,0.00-25.60-11.46-25.60-25.60S 88.008,300.768, 102.148,300.768z M 409.348,147.168l-307.20,0.00 c-14.14,0.00-25.60-11.46-25.60-25.60s 11.46-25.60, 25.60-25.60
		l 307.20,0.00 c 14.14,0.00, 25.60,11.46, 25.60,25.60S 423.489,147.168, 409.348,147.168z" />
<glyph unicode="&#x6c;" d="M 179.452,249.568l-153.60,0.00 c-14.145,0.00-25.60-11.46-25.60-25.60s 11.457-25.60, 25.60-25.60l 153.60,0.00 c 14.136,0.00, 25.60,11.46, 25.60,25.60
		S 193.588,249.568, 179.452,249.568z M 179.452,147.168l-153.60,0.00 c-14.145,0.00-25.60-11.46-25.60-25.60s 11.457-25.60, 25.60-25.60l 153.60,0.00 c 14.136,0.00, 25.60,11.46, 25.60,25.60
		S 193.588,147.168, 179.452,147.168z M 496.892,249.568l-87.04,0.00 l0.00,87.04 c0.00,14.14-11.464,15.36-25.60,15.36c-14.145,0.00-25.60-1.221-25.60-15.36l0.00-87.04 l-84.48,0.00 
		c-14.145,0.00-15.36-11.46-15.36-25.60s 1.217-25.60, 15.36-25.60l 84.48,0.00 l0.00-87.04 c0.00-14.14, 11.457-15.36, 25.60-15.36c 14.136,0.00, 25.60,1.221, 25.60,15.36l0.00,87.04 l 87.04,0.00 
		c 14.136,0.00, 15.36,11.46, 15.36,25.60S 511.028,249.568, 496.892,249.568z M 179.452,351.968l-153.60,0.00 c-14.145,0.00-25.60-11.46-25.60-25.60s 11.457-25.60, 25.60-25.60l 153.60,0.00 
		c 14.136,0.00, 25.60,11.46, 25.60,25.60S 193.588,351.968, 179.452,351.968z" />
<glyph unicode="&#x6d;" d="M 189.68,377.568l-46.08,0.00 c-28.16,0.00-40.96-12.80-40.96-40.96l0.00-46.08 c0.00-28.16, 12.80-40.96, 40.96-40.96l 46.08,0.00 c 28.16,0.00, 40.96,12.80, 40.96,40.96l0.00,46.08 
		C 230.64,364.768, 217.84,377.568, 189.68,377.568z M 368.881,377.568l-46.08,0.00 c-28.16,0.00-40.96-12.80-40.96-40.96l0.00-46.08 c0.00-28.16, 12.80-40.96, 40.96-40.96l 46.08,0.00 
		c 28.16,0.00, 40.96,12.80, 40.96,40.96l0.00,46.08 C 409.841,364.768, 397.041,377.568, 368.881,377.568z M 189.68,198.368l-46.08,0.00 c-28.16,0.00-40.96-12.80-40.96-40.96l0.00-46.08 
		c0.00-28.16, 12.80-40.96, 40.96-40.96l 46.08,0.00 c 28.16,0.00, 40.96,12.80, 40.96,40.96l0.00,46.08 C 230.64,185.568, 217.84,198.368, 189.68,198.368z M 368.881,198.368l-46.08,0.00 
		c-28.16,0.00-40.96-12.80-40.96-40.96l0.00-46.08 c0.00-28.16, 12.80-40.96, 40.96-40.96l 46.08,0.00 c 28.16,0.00, 40.96,12.80, 40.96,40.96l0.00,46.08 C 409.841,185.568, 397.041,198.368, 368.881,198.368z" />
<glyph unicode="&#x6e;" d="M 185.14,201.709l 143.36,0.00 l0.00,46.08 l-143.36,0.00 L 185.14,201.709 z M 384.241,454.368l-256.00,0.00 c-28.16,0.00-51.20-23.04-51.20-51.20l0.00-358.40 c0.00-28.16, 23.04-51.20, 51.20-51.20l 256.00,0.00 
		c 28.16,0.00, 51.20,23.04, 51.20,51.20l0.00,358.40 C 435.441,431.328, 412.401,454.368, 384.241,454.368z M 384.241,44.768l-256.00,0.00 l0.00,358.40 l 256.00,0.00 L 384.241,44.768 z
		 M 327.921,347.629l-143.36,0.00 l0.00-44.80 l 143.36,0.00 L 327.921,347.629 z M 327.921,146.669l-143.36,0.00 l0.00-44.80 l 143.36,0.00 L 327.921,146.669 z" />
<glyph unicode="&#x6f;" d="M 384.241,454.368l-256.00,0.00 c-28.16,0.00-51.20-23.04-51.20-51.20l0.00-358.40 c0.00-28.16, 23.04-51.20, 51.20-51.20l 256.00,0.00 c 28.16,0.00, 51.20,23.04, 51.20,51.20l0.00,358.40 
		C 435.441,431.328, 412.401,454.368, 384.241,454.368z M 384.241,44.768l-256.00,0.00 l0.00,358.40 l 256.00,0.00 L 384.241,44.768 z" />
<glyph unicode="&#x70;" d="M 409.841,351.968l-76.80,0.00 l0.00,76.80 c0.00,14.08-11.52,25.60-25.60,25.60l-204.80,0.00 c-14.08,0.00-25.60-11.52-25.60-25.60l0.00-307.20 c0.00-14.08, 11.52-25.60, 25.60-25.60l 76.80,0.00 l0.00-76.80 
		c0.00-14.08, 11.52-25.60, 25.60-25.60l 204.80,0.00 c 14.08,0.00, 25.60,11.52, 25.60,25.60l0.00,307.20 C 435.441,340.448, 423.921,351.968, 409.841,351.968z M 128.24,147.168l0.00,256.00 l 153.60,0.00 
		l0.00-51.20 L 204.525,351.968 c-14.08,0.00-25.084-11.008-25.084-25.088l0.00-179.712 L 128.24,147.168 z M 384.241,44.768l-153.60,0.00 l0.00,256.00 l 153.60,0.00 L 384.241,44.768 z" />
<glyph unicode="&#x71;" d="M 0.24,351.968l0.00-256.00 c0.00-28.16, 23.04-51.20, 51.20-51.20l 409.60,0.00 c 28.16,0.00, 51.20,23.04, 51.20,51.20l0.00,256.00 c0.00,28.16-23.04,51.20-51.20,51.20l-409.60,0.00 
		C 23.281,403.168, 0.24,380.128, 0.24,351.968z M 461.041,351.968l0.00-256.00 l-409.60,0.00 l0.00,256.00 L 461.041,351.968 z" />
<glyph unicode="&#x72;" d="M 438.631,309.175L 386.268,453.439c-3.868,10.649-15.212,16.288-25.32,12.60L 12.856,339.007
		C 2.74,335.32-2.332,323.687, 1.536,313.04l 55.212-152.112L 56.748,242.468 c0.00,36.78, 29.412,66.707, 65.555,66.707l 91.976,0.00 L 323.98,386.176
		l 63.48-77.00L 438.631,309.176 z M 492.737,263.00l-370.432,0.00 c-10.763,0.00-19.496-9.196-19.496-20.532l0.00-241.177 
		c0.00-11.332, 8.732-20.524, 19.496-20.524l 370.432,0.00 c 10.772,0.00, 19.504,9.191, 19.504,20.524L 512.241,242.468 
		C 512.241,253.805, 503.508,263.00, 492.737,263.00z M 464.468,32.084L 157.404,32.084 L 157.404,76.068 l 47.24,109.956l 70.864-87.972
		l 66.48,68.148l 85.475,30.844l 37.003-82.484L 464.468,32.084 z" />
<glyph unicode="&#x73;" d="M 507.121,351.968l0.00,30.72 c0.00,11.312-9.176,20.48-20.48,20.48l-460.80,0.00 c-11.312,0.00-20.48-9.168-20.48-20.48l0.00-30.72 l 51.20,0.00 l0.00-51.20 l-51.20,0.00 l0.00-51.20 l 51.20,0.00 l0.00-51.20 l-51.20,0.00 l0.00-51.20 l 51.20,0.00 
		l0.00-51.20 l-51.20,0.00 l0.00-30.72 c0.00-11.312, 9.168-20.48, 20.48-20.48l 460.80,0.00 c 11.304,0.00, 20.48,9.168, 20.48,20.48l0.00,30.72 l-51.20,0.00 l0.00,51.20 l 51.20,0.00 l0.00,51.20 l-51.20,0.00 l0.00,51.20 l 51.20,0.00 l0.00,51.20 l-51.20,0.00 l0.00,51.20 L 507.121,351.968 
		z M 199.92,147.168l0.00,153.60 l 128.00-76.80L 199.92,147.168z" />
<glyph unicode="&#x74;" d="M 384.241,454.368l-256.00,0.00 c-28.16,0.00-51.20-23.04-51.20-51.20l0.00-358.40 c0.00-28.16, 23.04-51.20, 51.20-51.20l 256.00,0.00 c 28.16,0.00, 51.20,23.04, 51.20,51.20l0.00,358.40 
		C 435.441,431.328, 412.401,454.368, 384.241,454.368z M 327.82,210.64c-6.084-9.472-9.312-5.424-7.479,0.00
		c 4.828,14.28, 4.627,57.512-35.644,63.856l0.00-133.449 c0.00-24.876-14.321-40.50-44.784-50.272
		c-29.60-9.492-62.728,0.368-70.469,21.632c-7.74,21.26, 9.665,47.112, 38.876,57.752
		c 16.296,5.92, 32.823,5.848, 45.60,0.936L 253.92,359.328 l 30.776,0.00 C 284.697,327.008, 371.248,278.199, 327.82,210.64z" />
<glyph unicode="&#x75;" d="M 488.429,300.768L 24.049,300.768 c-23.567,0.00-24.744-11.476-23.464-25.496l 21.128-230.608c 1.28-14.02, 4.60-25.496, 28.136-25.496
		L 462.628,19.168 c 24.001,0.00, 26.856,11.476, 28.136,25.496l 21.132,230.608C 513.177,289.292, 512.00,300.768, 488.429,300.768z M 471.388,357.088
		c-2.84,11.264-16.768,20.48-30.961,20.48L 265.984,377.568 c-14.197,0.00-34.019,8.129-44.076,18.063l-15.243,15.072
		c-10.049,9.936-29.88,18.063-44.072,18.063L 79.243,428.768 c-14.188,0.00-27.08-11.448-28.644-25.444L 43.125,336.608l 433.423,0.00 
		L 471.388,357.088z" />
<glyph unicode="&#x76;" d="M 434.619,351.968c0.00,25.60-25.48,25.60-25.48,25.60L 103.34,377.568 c0.00,0.00-25.48,0.00-25.48-25.60l0.00-25.60 l 356.761,0.00 L 434.62,351.968 z M 358.176,428.768L 154.305,428.768 
		c0.00,0.00-25.48,0.00-25.48-25.60l 254.832,0.00 C 383.656,428.768, 358.176,428.768, 358.176,428.768z M 485.584,326.368
		c-15.079,15.152-15.079,15.152-15.079,15.152l0.00-40.752 L 41.976,300.768 l0.00,40.752 c0.00,0.00,0.00,0.00-15.079-15.152S 1.009,307.148, 7.08,275.148
		c 6.041-31.876, 35.284-206.72, 39.632-230.384c 4.772-25.936, 31.148-25.596, 31.148-25.596l 356.761,0.00 c0.00,0.00, 26.372-0.34, 31.144,25.596
		c 4.348,23.665, 33.584,198.509, 39.636,230.384C 511.469,307.148, 500.664,311.216, 485.584,326.368z M 358.163,188.128
		c0.00,0.00,0.00-25.60-25.48-25.60L 179.792,162.528 c-25.48,0.00-25.48,25.60-25.48,25.60l0.00,51.20 l 35.676,0.00 l0.00-40.96 l 132.432,0.00 l0.00,40.96 l 35.744,0.00 L 358.163,188.128 z" />
<glyph unicode="&#x77;" d="M 256.244,433.888c-109.56,0.00-177.628-36.10-173.94-65.379l 36.912-303.796c 1.481-11.82, 56.856-50.604, 137.028-50.664
		c 80.16,0.06, 135.54,38.844, 137.02,50.664l 36.912,303.796C 433.864,397.788, 365.805,433.888, 256.244,433.888z M 256.244,324.048
		c-80.172,0.06-137.028,28.62-137.028,39.288c-0.04,10.609, 56.868,39.212, 137.028,39.168
		c 80.147,0.044, 137.069-28.559, 137.02-39.168C 393.264,352.669, 336.403,324.108, 256.244,324.048z" />
<glyph unicode="&#x78;" d="M 256.244,441.568l-138.24-130.04l 76.80,0.00 l0.00-125.96 l 122.88,0.00 L 317.684,311.527 l 76.80,0.00 L 256.244,441.568z M 495.335,146.088L 413.832,200.928l-50.256,0.00 
		l 87.048-66.78L 359.884,134.148 c-2.60,0.00-4.96-1.32-6.133-3.401l-20.92-57.22L 179.632,73.528 l-20.92,57.22
		c-1.16,2.08-3.529,3.401-6.128,3.401L 61.844,134.148 l 87.059,66.78l-50.272,0.00 L 17.144,146.088C 5.017,138.844-2.235,122.148, 1.016,108.987
		l 14.368-78.691c 3.259-13.159, 17.679-23.928, 32.04-23.928l 417.632,0.00 c 14.361,0.00, 28.776,10.767, 32.04,23.928l 14.361,78.691
		C 514.724,122.148, 507.464,138.844, 495.335,146.088z" />
<glyph unicode="&#x79;" d="M 394.484,315.612l-76.80,0.00 L 317.684,441.568 l-122.88,0.00 L 194.804,315.612 l-76.80,0.00 l 138.24-130.044L 394.484,315.612z M 495.335,146.084L 413.832,200.928l-50.256,0.00 
		L 450.625,134.144L 359.884,134.144 c-2.60,0.00-4.96-1.316-6.133-3.397l-20.92-57.22L 179.632,73.527 l-20.92,57.22
		c-1.16,2.08-3.529,3.397-6.128,3.397L 61.844,134.144 l 87.059,66.784l-50.272,0.00 L 17.144,146.084c-12.128-7.241-19.38-23.936-16.128-37.096
		l 14.368-78.691c 3.259-13.159, 17.679-23.928, 32.04-23.928l 417.632,0.00 c 14.361,0.00, 28.776,10.767, 32.04,23.928l 14.361,78.691
		C 514.724,122.148, 507.464,138.844, 495.335,146.084z" />
<glyph unicode="&#x7a;" d="M 478.544,200.908L 397.952,392.708c-6.384,12.789-23.284,23.26-37.559,23.26L 307.441,415.968 l 10.24-104.053l 69.12,0.00 l-130.56-108.269
		l-130.56,108.269l 69.12,0.00 l 10.24,104.053l-52.956,0.00 c-14.276,0.00-31.176-10.471-37.559-23.26L 33.936,200.908c-6.389-12.80-9.688-34.82-7.344-48.932
		l 17.416-94.347c 2.352-14.112, 15.944-25.659, 30.22-25.659l 364.02,0.00 c 14.276,0.00, 27.872,11.548, 30.22,25.659l 17.416,94.347
		C 488.228,166.088, 484.929,188.108, 478.544,200.908z M 443.66,131.068l-6.631-36.919c-1.985-14.172-15.284-25.76-29.556-25.76
		L 105.004,68.388 c-14.268,0.00-27.572,11.588-29.556,25.76l-6.628,36.919c-1.979,14.168, 8.075,25.76, 22.348,25.76l 330.14,0.00 
		C 435.584,156.828, 445.64,145.236, 443.66,131.068z" />
<glyph unicode="&#x7b;" d="M 389.688,297.176c-7.059,0.00-13.967-0.608-20.70-1.74c-16.80,54.912-68.828,94.932-130.448,94.932
		c-75.212,0.00-136.173-59.60-136.173-133.132c0.00-6.56, 0.512-13.008, 1.452-19.32c-3.612,0.413-7.26,0.692-10.98,0.692
		c-51.14,0.00-92.60-40.532-92.60-90.52c0.00-49.993, 41.461-90.52, 92.60-90.52l 296.847,0.00 
		c 67.693,0.00, 122.552,53.64, 122.552,119.808C 512.241,243.536, 457.38,297.176, 389.688,297.176z" />
<glyph unicode="&#x7c;" d="M 389.688,297.18c-7.059,0.00-13.967-0.612-20.70-1.74c-16.80,54.904-68.828,94.928-130.448,94.928
		c-75.212,0.00-136.173-59.60-136.173-133.128c0.00-6.56, 0.512-13.008, 1.452-19.324c-3.612,0.416-7.26,0.695-10.98,0.695
		c-51.14,0.00-92.60-40.532-92.60-90.515c0.00-50.00, 41.461-90.528, 92.60-90.528l 127.56,0.00 l0.00,97.28 l-53.76,0.00 l 89.60,117.76l 89.60-117.76l-53.76,0.00 l0.00-97.28 
		l 97.608,0.00 c 67.693,0.00, 122.552,53.64, 122.552,119.808C 512.241,243.54, 457.38,297.18, 389.688,297.18z" />
<glyph unicode="&#x7d;" d="M 376.448,237.10L 157.28,372.883c-15.972,10.481-29.041,2.768-29.041-17.132l0.00-263.58 c0.00-19.888, 13.067-27.60, 29.041-17.128
		L 376.448,210.82c0.00,0.00, 7.792,5.479, 7.792,13.144C 384.241,231.62, 376.448,237.10, 376.448,237.10z" />
<glyph unicode="&#xe000;" d="M 345.841,403.168c-25.457,0.00-46.08-7.833-46.08-33.28l0.00-291.84 c0.00-25.452, 20.623-33.28, 46.08-33.28c 25.448,0.00, 46.08,7.827, 46.08,33.28l0.00,291.84 
			C 391.921,395.336, 371.288,403.168, 345.841,403.168zM 166.64,403.168c-25.457,0.00-46.08-7.833-46.08-33.28l0.00-291.84 c0.00-25.452, 20.623-33.28, 46.08-33.28c 25.448,0.00, 46.08,7.827, 46.08,33.28l0.00,291.84 
			C 212.72,395.336, 192.088,403.168, 166.64,403.168z" />
<glyph unicode="&#xe001;" d="M 256.24,403.168c-98.968,0.00-179.20-80.237-179.20-179.20c0.00-98.973, 80.232-179.20, 179.20-179.20c 98.963,0.00, 179.20,80.227, 179.20,179.20
		C 435.441,322.932, 355.204,403.168, 256.24,403.168z" />
<glyph unicode="&#xe002;" d="M 371.441,377.568l-230.40,0.00 c-25.457,0.00-38.40-7.833-38.40-33.28l0.00-240.64 c0.00-25.452, 12.943-33.28, 38.40-33.28l 230.40,0.00 c 25.448,0.00, 38.40,7.827, 38.40,33.28l0.00,240.64 
		C 409.841,369.736, 396.888,377.568, 371.441,377.568z" />
<glyph unicode="&#xe003;" d="M 474.36,236.236L 283.329,362.968c-14.66,9.768-26.68,2.575-26.68-15.992l0.00-246.008 
		c0.00-18.572, 12.021-25.772, 26.68-15.992l 191.031,126.728c0.00,0.00, 7.16,5.112, 7.16,12.263
		C 481.521,231.116, 474.36,236.236, 474.36,236.236z M 242.029,236.236L 57.629,362.968c-14.66,9.768-26.668,2.575-26.668-15.992
		l0.00-246.008 c0.00-18.572, 12.007-25.772, 26.668-15.992l 184.40,126.728c0.00,0.00, 7.152,5.112, 7.152,12.263
		C 249.18,231.116, 242.029,236.236, 242.029,236.236z" />
<glyph unicode="&#xe004;" d="M 30.961,223.968c0.00-7.152, 7.149-12.273, 7.149-12.273l 191.041-126.72c 14.66-9.78, 26.68-2.588, 26.68,15.992L 255.828,346.968 
		c0.00,18.568-12.021,25.768-26.68,15.989L 38.108,236.228C 38.108,236.228, 30.961,231.116, 30.961,223.968z M 263.30,223.968
		c0.00-7.152, 7.149-12.273, 7.149-12.273l 184.40-126.72c 14.66-9.78, 26.672-2.588, 26.672,15.992L 481.521,346.968 
		c0.00,18.568-12.012,25.768-26.672,15.989L 270.449,236.228C 270.449,236.228, 263.30,231.116, 263.30,223.968z" />
<glyph unicode="&#xe005;" d="M 191.847,223.964c0.00-6.601, 6.711-11.32, 6.711-11.32l 186.259-116.984c 13.761-9.016, 25.019-2.377, 25.019,14.76L 409.84,337.511 
		c0.00,17.14-11.26,23.78-25.019,14.748L 198.56,235.283C 198.56,235.283, 191.847,230.564, 191.847,223.964z M 102.64,342.832l0.00-237.732 
		c0.00-22.728, 15.668-29.72, 38.40-29.72c 22.728,0.00, 38.40,6.992, 38.40,29.72l0.00,237.732 c0.00,22.732-15.672,29.72-38.40,29.72
		C 118.308,372.552, 102.64,365.564, 102.64,342.832z" />
<glyph unicode="&#xe006;" d="M 313.921,235.283L 127.66,352.264c-13.761,9.028-25.019,2.384-25.019-14.756l0.00-227.084 c0.00-17.14, 11.26-23.78, 25.019-14.76
		L 313.921,212.644c0.00,0.00, 6.708,4.72, 6.708,11.32S 313.921,235.283, 313.921,235.283z M 371.441,372.549c-22.732,0.00-38.40-6.988-38.40-29.711
		l0.00-237.736 c0.00-22.728, 15.668-29.716, 38.40-29.716c 22.728,0.00, 38.40,6.988, 38.40,29.716L 409.841,342.836 C 409.841,365.56, 394.168,372.549, 371.441,372.549
		z" />
<glyph unicode="&#xe007;" d="M 319.74,417.763L 359.624,377.373L 287.152,304.004L 337.884,252.643L 410.353,326.012L 450.176,285.684L 461.044,428.768 		zM 174.604,195.292L 102.136,121.915L 62.312,162.252L 51.445,19.168L 192.749,30.172L 152.868,70.553L 225.335,143.928 
					z" />
<glyph unicode="&#xe008;" d="M 466.161,381.236L 414.164,433.888L 339.88,358.675l-40.816,41.34l-11.14-146.659l 144.836,11.275l-40.88,41.396
		L 466.161,381.236z M 120.60,141.893L 46.32,66.696l 51.997-52.648l 74.284,75.208l 40.816-41.34l 11.14,146.656l-144.836-11.272
		L 120.60,141.893z" />
<glyph unicode="&#xe009;" d="M 485.785,135.456c0.00-22.532-18.436-40.96-40.96-40.96l-399.36,0.00 c-22.528,0.00-25.157,9.48-5.836,21.068l 411.033,231.779
		c 19.32,11.592, 35.124,2.64, 35.124-19.888L 485.785,135.456 z" />
<glyph unicode="&#xe00a;" d="M 115.912,348.368C 87.192,319.719-38.40,140.64, 70.12,32.187c 108.44-108.533, 287.50,17.068, 316.232,45.80
		c 28.72,28.652-8.561,112.501-83.252,187.201C 228.412,339.895, 144.64,377.168, 115.912,348.368z M 353.052,102.887
		c-8.48-8.408-74.101,11.70-137.319,74.92C 152.58,241.049, 132.412,306.68, 140.88,315.148
		c 8.40,8.468, 74.101-11.70, 137.241-74.932C 341.351,177.056, 361.52,111.368, 353.052,102.887z M 356.879,304.656
		c 6.553,0.00, 13.10,2.505, 18.10,7.504l 48.779,48.776c 9.999,9.999, 9.999,26.212,0.00,36.20c-9.988,9.999-26.208,9.999-36.20,0.00
		l-48.779-48.776c-9.999-9.992-9.999-26.20,0.00-36.20C 343.772,307.16, 350.332,304.656, 356.879,304.656z M 264.719,367.976
		c 3.96-2.216, 8.252-3.269, 12.492-3.269c 8.96,0.00, 17.66,4.708, 22.36,13.092l 27.668,49.40c 6.912,12.336, 2.512,27.936-9.82,34.848
		c-12.328,6.901-27.928,2.512-34.848-9.831l-27.672-49.40C 247.991,390.488, 252.391,374.888, 264.719,367.976z M 488.66,290.80
		c-6.908,12.336-22.508,16.728-34.84,9.828l-49.40-27.68c-12.34-6.908-16.74-22.508-9.828-34.84
		c 4.70-8.38, 13.40-13.10, 22.36-13.10c 4.24,0.00, 8.528,1.06, 12.488,3.273l 49.40,27.68
		C 491.172,262.868, 495.572,278.468, 488.66,290.80z" />
<glyph unicode="&#xe00b;" d="M 474.404,442.128c-9.988,9.999-26.212,9.999-36.20,0.00L 38.081,42.009c-9.999-9.999-9.999-26.212,0.00-36.20
		c 5.00-5.00, 11.548-7.504, 18.10-7.504c 6.547,0.00, 13.108,2.505, 18.10,7.504L 474.404,405.928
		C 484.404,415.927, 484.404,432.136, 474.404,442.128z M 363.784,244.616c 35.564-48.22, 46.556-90.088, 39.912-96.739
		c-6.648-6.601-48.48,4.371-96.728,39.932L 165.479,46.317C 272.644-0.736, 411.944,97.928, 436.992,122.976
		c 23.676,23.621, 2.476,84.74-47.528,147.328L 363.784,244.616z M 222.109,276.717c-28.12,42.441-36.604,77.388-30.572,83.42
		c 5.972,6.032, 40.949-2.46, 83.372-30.62l 26.204,26.212c-57.948,42.856-112.493,59.747-134.56,37.628
		c-23.768-23.708-113.884-150.452-82.732-254.921L 222.109,276.717z" />
<glyph unicode="&#xe00c;" d="M 262.456,29.408L 262.476,127.385L 442.097,127.368L 442.097,320.728L 262.456,320.728L 262.476,418.528L 68.336,223.956 	z" />
<glyph unicode="&#xe00d;" d="M 449.777,231.208L 351.796,231.223L 351.816,410.848L 158.46,410.848L 158.46,231.208L 60.656,231.223L 255.232,37.088 
			z" />
<glyph unicode="&#xe00e;" d="M 449.777,216.729L 351.796,216.704L 351.816,37.088L 158.464,37.088L 158.464,216.729L 60.656,216.704L 255.236,410.848 	z" />
<glyph unicode="&#xe00f;" d="M 247.976,418.528L 247.955,320.544L 68.336,320.567L 68.336,127.207L 247.976,127.207L 247.955,29.408L 442.097,223.975 	z" />
<glyph unicode="&#xe010;" d="M 262.456,55.008L 262.476,152.985L 442.097,152.968L 442.097,295.128L 262.456,295.128L 262.476,392.928L 68.336,223.956 	z" />
<glyph unicode="&#xe011;" d="M 424.177,231.208L 326.196,231.223L 326.216,410.848L 184.06,410.848L 184.06,231.208L 86.256,231.223L 255.232,37.088 
			z" />
<glyph unicode="&#xe012;" d="M 424.177,216.729L 326.196,216.704L 326.216,37.088L 184.064,37.088L 184.064,216.729L 86.256,216.704L 255.236,410.848 	z" />
<glyph unicode="&#xe013;" d="M 247.976,392.928L 247.955,294.944L 68.336,294.967L 68.336,152.817L 247.976,152.817L 247.955,55.008L 442.097,223.984 	z" />
<glyph unicode="&#xe014;" d="M 490.737,223.975c0.00,130.072-105.453,235.512-235.52,235.512c-130.08,0.00-235.52-105.44-235.52-235.512
		c0.00-130.08, 105.44-235.528, 235.52-235.528C 385.284-11.552, 490.737,93.896, 490.737,223.975z M 70.896,223.975
		c0.00,101.792, 82.52,184.312, 184.32,184.312s 184.32-82.52, 184.32-184.312c0.00-101.808-82.52-184.328-184.32-184.328
		S 70.896,122.168, 70.896,223.975z M 353.777,177.888l0.00,92.16 L 249.063,270.048 l0.00,57.60 l-97.528-103.68l 97.528-103.68l0.00,57.60 L 353.777,177.888 z" />
<glyph unicode="&#xe015;" d="M 255.203,459.488c-130.067,0.00-235.508-105.453-235.508-235.52c0.00-130.08, 105.44-235.52, 235.508-235.52
		c 130.08,0.00, 235.532,105.44, 235.532,235.52C 490.737,354.037, 385.284,459.488, 255.203,459.488z M 255.203,39.648
		c-101.789,0.00-184.308,82.52-184.308,184.32s 82.52,184.32, 184.308,184.32c 101.812,0.00, 184.332-82.52, 184.332-184.32
		S 357.017,39.648, 255.203,39.648z M 301.297,322.528l-92.16,0.00 l0.00-104.712 l-57.60,0.00 l 103.68-97.528l 103.68,97.528l-57.60,0.00 L 301.297,322.528 z" />
<glyph unicode="&#xe016;" d="M 255.224-11.552c 130.072,0.00, 235.512,105.448, 235.512,235.52c0.00,130.08-105.44,235.52-235.512,235.52
		c-130.08,0.00-235.528-105.44-235.528-235.52C 19.697,93.896, 125.144-11.552, 255.224-11.552z M 255.224,408.288
		c 101.792,0.00, 184.312-82.52, 184.312-184.32s-82.52-184.32-184.312-184.32c-101.808,0.00-184.328,82.52-184.328,184.32
		S 153.417,408.288, 255.224,408.288z M 209.136,125.408l 92.16,0.00 L 301.297,230.115 l 57.60,0.00 l-103.68,97.532l-103.68-97.532l 57.60,0.00 L 209.137,125.408 z" />
<glyph unicode="&#xe017;" d="M 19.697,223.956c0.00-130.067, 105.448-235.508, 235.52-235.508c 130.08,0.00, 235.52,105.44, 235.52,235.508
		c0.00,130.08-105.44,235.532-235.52,235.532C 125.144,459.488, 19.697,354.037, 19.697,223.956z M 439.537,223.956
		c0.00-101.789-82.52-184.308-184.32-184.308s-184.32,82.52-184.32,184.308c0.00,101.812, 82.52,184.332, 184.32,184.332
		S 439.537,325.768, 439.537,223.956z M 156.656,270.048l0.00-92.16 l 104.708,0.00 l0.00-57.60 l 97.532,103.68l-97.532,103.68l0.00-57.60 L 156.656,270.048 z" />
<glyph unicode="&#xe018;" d="M 292.505,364.351c-10.696-10.436-115.256-120.216-115.256-120.216c-5.705-5.569-8.561-12.865-8.561-20.168
	c0.00-7.307, 2.856-14.607, 8.561-20.172c0.00,0.00, 104.56-109.78, 115.256-120.216c 10.692-10.436, 29.937-11.144, 41.364,0.00
	c 11.407,11.132, 12.32,26.676-0.011,40.336L 237.936,223.968l 95.92,100.044c 12.332,13.664, 11.42,29.204, 0.011,40.34
	C 322.44,375.496, 303.196,374.784, 292.505,364.351z" />
<glyph unicode="&#xe019;" d="M 396.624,260.744c-10.436-10.692-120.216-115.248-120.216-115.248c-5.569-5.712-12.865-8.568-20.168-8.568
	s-14.607,2.856-20.172,8.568c0.00,0.00-109.78,104.557-120.211,115.248c-10.436,10.704-11.147,29.944,0.00,41.36
	c 11.128,11.417, 26.672,12.32, 40.331,0.00l 100.052-95.92l 100.044,95.92c 13.664,12.32, 29.204,11.417, 40.34,0.00
	C 407.768,290.688, 407.059,271.448, 396.624,260.744z" />
<glyph unicode="&#xe01a;" d="M 396.62,187.188c-10.433,10.696-120.211,115.252-120.211,115.252c-5.569,5.708-12.868,8.572-20.168,8.572
	c-7.312,0.00-14.612-2.864-20.172-8.572c0.00,0.00-109.78-104.557-120.221-115.252c-10.428-10.696-11.14-29.937,0.00-41.36
	c 11.132-11.412, 26.68-12.32, 40.34,0.00l 100.052,95.92L 356.28,145.828c 13.668-12.32, 29.208-11.412, 40.34,0.00
	C 407.768,157.253, 407.059,176.493, 396.62,187.188z" />
<glyph unicode="&#xe01b;" d="M 219.465,364.351c 10.696-10.436, 115.256-120.216, 115.256-120.216c 5.705-5.569, 8.561-12.865, 8.561-20.168
	c0.00-7.307-2.856-14.607-8.561-20.172c0.00,0.00-104.56-109.78-115.256-120.216s-29.94-11.144-41.364,0.00
	c-11.412,11.132-12.32,26.676, 0.008,40.336l 95.92,100.052L 178.108,324.012c-12.328,13.664-11.42,29.204-0.008,40.34
	C 189.524,375.496, 208.768,374.784, 219.465,364.351z" />
<glyph unicode="&#xe01c;" d="M 127.80,95.968L 127.82,178.585L 507.121,178.568L 507.121,269.528L 127.80,269.528L 127.82,351.968L 5.36,223.956 
	z" />
<glyph unicode="&#xe01d;" d="M 384.244,95.528L 301.624,95.544L 301.644,474.848L 210.684,474.848L 210.684,95.528L 128.245,95.544L 256.256-26.912 z" />
<glyph unicode="&#xe01e;" d="M 384.241,352.408L 301.62,352.384L 301.64-26.912L 210.684-26.912L 210.684,352.408L 128.24,352.384L 256.256,474.848 z" />
<glyph unicode="&#xe01f;" d="M 384.68,95.968L 384.659,178.585L 5.36,178.568L 5.36,269.528L 384.68,269.528L 384.659,351.968L 507.121,223.956 
	z" />
<glyph unicode="&#xe020;" d="M 357.596,341.731L 357.617,106.204L 152.816,223.984 z" />
<glyph unicode="&#xe021;" d="M 372.977,326.348L 137.456,326.371L 255.232,121.564 z" />
<glyph unicode="&#xe022;" d="M 138.48,121.585L 374.001,121.564L 256.224,326.371 z" />
<glyph unicode="&#xe023;" d="M 153.86,341.731L 153.84,106.204L 358.641,223.984 z" />
<glyph unicode="&#xe024;" d="M 194.092,370.936c-9.404,8.843-22.10,8.843-31.508,0.00L-0.783,223.968l 163.368-146.96
	c 9.409-8.852, 22.104-8.852, 31.508,0.00c 9.412,8.857, 9.412,23.212,0.00,32.065L 67.256,223.968l 126.837,114.896
	C 203.504,347.716, 203.504,362.072, 194.092,370.936z M 347.864,370.936c-9.416,8.843-22.104,8.843-31.516,0.00
	c-9.412-8.864-8.897-23.22, 0.516-32.072l 126.32-114.896L 316.865,109.071c-9.412-8.852-9.928-23.208-0.516-32.065
	c 9.412-8.852, 22.10-8.852, 31.516,0.00l 163.353,146.96L 347.864,370.936z" />
<glyph unicode="&#xe025;" d="M 460.017,351.968l-409.60,0.00 c-28.16,0.00-51.20-23.04-51.20-51.20l0.00-153.60 c0.00-28.16, 23.04-51.20, 51.20-51.20l 409.60,0.00 c 28.16,0.00, 51.20,23.04, 51.20,51.20l0.00,153.60 
			C 511.217,328.928, 488.177,351.968, 460.017,351.968z M 460.017,147.168l-409.60,0.00 l0.00,153.60 l 409.60,0.00 L 460.017,147.168 z" />
<glyph unicode="&#xe026;" d="M 460.017,351.968l-409.60,0.00 c-28.16,0.00-51.20-23.04-51.20-51.20l0.00-153.60 c0.00-28.16, 23.04-51.20, 51.20-51.20l 409.60,0.00 c 28.16,0.00, 51.20,23.04, 51.20,51.20l0.00,153.60 
			C 511.217,328.928, 488.177,351.968, 460.017,351.968z M 460.017,147.168l-409.60,0.00 l0.00,153.60 l 409.60,0.00 L 460.017,147.168 z M 178.416,275.168l-102.40,0.00 l0.00-102.40 l 102.40,0.00 
			L 178.416,275.168 z" />
<glyph unicode="&#xe027;" d="M 460.017,351.968l-409.60,0.00 c-28.16,0.00-51.20-23.04-51.20-51.20l0.00-153.60 c0.00-28.16, 23.04-51.20, 51.20-51.20l 409.60,0.00 c 28.16,0.00, 51.20,23.04, 51.20,51.20l0.00,153.60 
			C 511.217,328.928, 488.177,351.968, 460.017,351.968z M 460.017,147.168l-409.60,0.00 l0.00,153.60 l 409.60,0.00 L 460.017,147.168 z M 306.417,275.168l-102.40,0.00 l0.00-102.40 l 102.40,0.00 
			L 306.417,275.168 z M 178.416,275.168l-102.40,0.00 l0.00-102.40 l 102.40,0.00 L 178.416,275.168 z" />
<glyph unicode="&#xe028;" d="M 460.017,351.968l-409.60,0.00 c-28.16,0.00-51.20-23.04-51.20-51.20l0.00-153.60 c0.00-28.16, 23.04-51.20, 51.20-51.20l 409.60,0.00 c 28.16,0.00, 51.20,23.04, 51.20,51.20l0.00,153.60 
			C 511.217,328.928, 488.177,351.968, 460.017,351.968z M 460.017,147.168l-409.60,0.00 l0.00,153.60 l 409.60,0.00 L 460.017,147.168 z M 434.417,275.168l-102.40,0.00 l0.00-102.40 l 102.40,0.00 
			L 434.417,275.168 z M 178.416,275.168l-102.40,0.00 l0.00-102.40 l 102.40,0.00 L 178.416,275.168 z M 306.417,275.168l-102.40,0.00 l0.00-102.40 l 102.40,0.00 L 306.417,275.168 z" />
<glyph unicode="&#xe029;" d="M 393.659,223.968c0.00,70.80, 32.692,110.592, 58.292,110.592c 9.329,0.00, 33.664,0.00, 33.664,0.00c-17.104,27.112-31.252,43.012-93.637,43.012
	L 135.776,377.572 c-95.60,0.00-136.56-88.10-136.56-153.604s 40.96-153.60, 136.56-153.60l 256.204,0.00 c 62.384,0.00, 76.533,15.897, 93.637,43.008
	c0.00,0.00-8.064,0.00-33.664,0.00S 393.659,153.176, 393.659,223.968z M 275.475,210.376c-9.644-12.22-40.477-40.832-49.696-49.312
	c-40.16-36.937-42.844-36.937-45.956-36.937l-1.88,0.00 l-4.604,2.377l-1.02,3.211c-1.288,4.243-1.448,4.788, 19.724,43.268
	c 5.80,10.532, 13.228,24.032, 16.916,31.48c-3.48,1.264-8.089,2.801-11.86,4.056c-25.281,8.423-32.443,11.512-34.72,17.196
	c-1.76,4.42, 0.892,8.331, 1.884,9.80c 6.985,10.32, 36.652,38.068, 49.076,49.525c 42.068,38.768, 45.18,38.768, 48.188,38.768
	l 2.332,0.00 l 2.036-1.316c 6.58-4.392, 3.42-10.481-3.504-23.832c-4.148-7.996-9.80-18.332-15.264-28.332
	c-5.04-9.216-10.948-20.033-14.321-26.632c 2.516-0.86, 5.464-1.832, 8.104-2.699c 28.76-9.457, 36.776-12.988, 38.416-19.852
	C 280.324,216.972, 277.968,213.536, 275.475,210.376z M 482.396,277.024l-19.16,0.00 c-14.311,0.00-28.312-19.313-28.312-50.688
	c0.00-31.368, 14.00-50.688, 28.312-50.688l 19.16,0.00 c 14.308,0.00, 28.82,19.32, 28.82,50.688C 511.217,257.712, 496.705,277.024, 482.396,277.024z" />
<glyph unicode="&#xe02a;" d="M 287.628,433.888c-113.808,0.00-206.332-91.168-209.12-204.676L 15.601,229.212 l 94.164-104.96l 94.164,104.96L 130.824,229.212 
	c 2.764,84.52, 71.884,152.196, 156.804,152.196c 86.675,0.00, 156.94-70.488, 156.94-157.44c0.00-86.956-70.264-157.44-156.94-157.44
	c-34.761,0.00-66.86,11.352-92.865,30.544l-35.984-38.504c 35.524-27.889, 80.248-44.52, 128.848-44.52
	c 115.573,0.00, 209.251,93.976, 209.251,209.92C 496.881,339.903, 403.20,433.888, 287.628,433.888z M 269.028,336.608L 269.028,216.54 l 76.939-76.924
	l 25.34,25.34L 304.881,231.392l0.00,105.216 L 269.028,336.608 z" />
<glyph unicode="&#xe02b;" d="M 140.784,224.00l 261.12,0.00 l0.00-122.88 l 71.68,0.00 L 473.585,244.48 c0.00,28.28-22.92,51.20-51.20,51.20l-281.60,0.00 L 140.785,346.88 l-102.40-87.04l 102.40-81.92L 140.785,224.00 z" />
<glyph unicode="&#xe02c;" d="M 485.617,244.448c-4.64,0.00-20.456,0.00-25.092,0.00c-14.14,0.00-25.60-9.172-25.60-20.48c0.00-11.312, 11.46-20.48, 25.60-20.48
	c 4.636,0.00, 20.452,0.00, 25.092,0.00c 14.14,0.00, 25.60,9.168, 25.60,20.48C 511.217,235.276, 499.756,244.448, 485.617,244.448z M 255.216,364.76
	c-78.091,0.00-140.80-62.709-140.80-140.792c0.00-78.091, 62.709-140.808, 140.80-140.808c 78.084,0.00, 140.80,62.716, 140.80,140.808
	C 396.017,302.051, 333.30,364.76, 255.216,364.76z M 255.216,121.568c-56.58,0.00-102.40,45.824-102.40,102.40
	c0.00,56.568, 45.82,102.404, 102.40,102.404c 56.568,0.00, 102.40-45.835, 102.40-102.404C 357.617,167.392, 311.783,121.568, 255.216,121.568z
	 M 75.496,223.968c0.00,11.308-10.94,20.48-25.08,20.48c-4.72,0.00-20.892,0.00-25.60,0.00c-14.14,0.00-25.60-9.172-25.60-20.48c0.00-11.312, 11.46-20.48, 25.60-20.48
	c 4.708,0.00, 20.879,0.00, 25.60,0.00C 64.556,203.488, 75.496,212.656, 75.496,223.968z M 255.216,403.171c 11.308,0.00, 20.48,11.46, 20.48,25.60
	c0.00,4.684,0.00,20.908,0.00,25.60c0.00,14.14-9.172,25.60-20.48,25.60c-11.312,0.00-20.48-11.46-20.48-25.60c0.00-4.692,0.00-20.916,0.00-25.60
	C 234.736,414.632, 243.905,403.171, 255.216,403.171z M 255.216,44.768c-11.312,0.00-20.48-11.464-20.48-25.60c0.00-4.688,0.00-20.912,0.00-25.60
	c0.00-14.145, 9.168-25.60, 20.48-25.60c 11.308,0.00, 20.48,11.457, 20.48,25.60c0.00,4.688,0.00,20.912,0.00,25.60C 275.697,33.305, 266.524,44.768, 255.216,44.768z
	 M 443.776,383.56c 9.999,9.995, 11.62,24.591, 3.62,32.592s-22.593,6.368-32.581-3.62c-2.761-2.761-15.169-15.16-17.92-17.92
	c-9.999-9.999-11.62-24.588-3.62-32.581c 8.001-8.009, 22.587-6.384, 32.581,3.608
	C 428.616,368.40, 441.019,380.80, 443.776,383.56z M 84.564,82.289c-2.761-2.761-15.16-15.172-17.92-17.92
	c-9.988-9.992-11.608-24.584-3.62-32.584c 8.001-8.001, 22.593-6.368, 32.581,3.624c 2.761,2.747, 15.164,15.148, 17.92,17.908
	c 9.999,9.995, 11.62,24.588, 3.62,32.588S 94.556,92.276, 84.564,82.289z M 95.624,412.533
	c-9.999,9.995-24.588,11.62-32.588,3.62s-6.375-22.593, 3.62-32.584c 2.753-2.757, 15.16-15.169, 17.92-17.92
	c 9.999-9.995, 24.58-11.616, 32.581-3.616s 6.381,22.584-3.612,32.581C 110.785,397.371, 98.38,409.772, 95.624,412.533z
	 M 396.896,53.317c 2.761-2.761, 15.169-15.16, 17.924-17.916c 9.988-9.988, 24.58-11.616, 32.581-3.62
	c 7.996,8.001, 6.368,22.593-3.62,32.581c-2.757,2.757-15.156,15.169-17.916,17.92c-9.988,9.995-24.588,11.62-32.588,3.62
	S 386.904,63.312, 396.896,53.317z" />
<glyph unicode="&#xe02d;" d="M 255.216,305.888c-45.432,0.00-81.916-36.491-81.916-81.92c0.00-45.432, 36.484-81.92, 81.916-81.92c 45.429,0.00, 81.92,36.488, 81.92,81.92
	C 337.137,269.396, 300.644,305.888, 255.216,305.888z M 255.216,171.488c-28.997,0.00-52.48,23.489-52.48,52.48
	c0.00,28.987, 23.483,52.48, 52.48,52.48c 28.987,0.00, 52.48-23.493, 52.48-52.48C 307.697,194.976, 284.204,171.488, 255.216,171.488z
	 M 101.616,244.448c-14.14,0.00-25.60-9.172-25.60-20.48c0.00-11.312, 11.46-20.48, 25.60-20.48s 25.088,9.168, 25.088,20.48
	C 126.704,235.276, 115.756,244.448, 101.616,244.448z M 380.844,349.592c-8.001,8.001-22.587,6.368-32.588-3.62
	c-9.992-9.999-11.612-24.588-3.612-32.581c 8.001-8.009, 22.58-6.384, 32.581,3.608
	C 387.215,326.996, 388.845,341.592, 380.844,349.592z M 408.817,244.448c-14.14,0.00-25.092-9.172-25.092-20.48
	c0.00-11.312, 10.952-20.48, 25.092-20.48s 25.60,9.168, 25.60,20.48C 434.417,235.276, 422.956,244.448, 408.817,244.448z M 255.216,95.968
	c-11.312,0.00-20.48-11.464-20.48-25.60c0.00-14.145, 9.168-25.60, 20.48-25.60c 11.308,0.00, 20.48,11.457, 20.48,25.60C 275.697,84.505, 266.524,95.968, 255.216,95.968z
	 M 133.216,128.369c-9.992-9.992-11.62-24.584-3.62-32.584s 22.587-6.368, 32.581,3.624c 9.999,9.999, 11.62,24.588, 3.628,32.588
	C 157.805,139.984, 143.216,138.368, 133.216,128.369z M 128.315,348.313c-8.001-8.001-6.372-22.593, 3.62-32.592
	c 9.999-9.988, 24.588-11.608, 32.584-3.608c 8.004,8.001, 6.384,22.58-3.616,32.581
	C 150.916,354.68, 136.316,356.312, 128.315,348.313z M 349.543,100.688c 9.992-9.992, 24.58-11.623, 32.581-3.624
	c 7.996,8.001, 6.372,22.593-3.62,32.584c-9.999,9.999-24.588,11.616-32.588,3.628C 337.92,125.276, 339.544,110.688, 349.543,100.688z
	 M 255.216,351.971c 11.308,0.00, 20.48,11.46, 20.48,25.60s-9.172,25.60-20.48,25.60c-11.312,0.00-20.48-11.46-20.48-25.60S 243.905,351.971, 255.216,351.971z" />
<glyph unicode="&#xe02e;" d="M 325.825,75.488c0.00,107.348, 101.08,151.128, 92.741,259.452
	C 413.304,403.292, 373.424,479.971, 255.207,479.971c-118.228,0.00-158.096-76.68-163.364-145.032
	c-8.356-108.324, 98.392-148.205, 98.392-259.452L 325.825,75.487 z M 187.408-10.777c 18.996-13.067, 41.00-21.908, 67.80-21.216
	c 26.792-0.692, 48.788,8.148, 67.788,21.216l0.00,50.424 l-135.588,0.00 L 187.408-10.777 z" />
<glyph unicode="&#xe02f;" d="M 460.013,428.771L 50.421,428.771 c-28.16,0.00-51.20-23.04-51.20-51.20l0.00-307.204 c0.00-28.16, 23.04-51.20, 51.20-51.20l 409.592,0.00 c 28.16,0.00, 51.20,23.04, 51.20,51.20L 511.213,377.571 
	C 511.213,405.731, 488.173,428.771, 460.013,428.771z M 116.981,380.896c 10.609,0.00, 19.20-8.36, 19.20-18.684s-8.591-18.684-19.20-18.684
	c-10.613,0.00-19.20,8.36-19.20,18.684S 106.368,380.896, 116.981,380.896z M 46.581,362.211c0.00,10.324, 8.587,18.684, 19.20,18.684
	c 10.609,0.00, 19.20-8.36, 19.20-18.684s-8.591-18.684-19.20-18.684C 55.168,343.527, 46.581,351.888, 46.581,362.211z M 460.525,70.368
	L 49.909,70.368 L 49.909,305.891 l 410.616,0.00 L 460.525,70.368 z M 460.525,346.851L 152.82,346.851 l0.00,30.72 l 307.704,0.00 L 460.525,346.851 z" />
<glyph unicode="&#xe030;" d="M 460.017,454.368l-409.60,0.00 c-28.16,0.00-51.20-23.04-51.20-51.20l0.00-307.20 c0.00-28.16, 23.04-50.692, 51.20-50.692l 101.888,0.00 l0.00,50.18 l-102.40,0.00 l0.00,236.032 l 410.62,0.00 l0.00-236.032 l-102.40,0.00 l0.00-50.18 
	l 101.892,0.00 c 28.16,0.00, 51.20,22.532, 51.20,50.692l0.00,307.20 C 511.217,431.328, 488.177,454.368, 460.017,454.368z M 65.776,369.123
	c-10.613,0.00-19.20,8.36-19.20,18.684s 8.587,18.684, 19.20,18.684c 10.609,0.00, 19.20-8.36, 19.20-18.684S 76.384,369.123, 65.776,369.123z
	 M 116.976,369.123c-10.613,0.00-19.20,8.36-19.20,18.684s 8.587,18.684, 19.20,18.684c 10.609,0.00, 19.20-8.36, 19.20-18.684
	S 127.584,369.123, 116.976,369.123z M 460.525,371.932L 152.304,371.932 l0.00,31.744 l 308.22,0.00 L 460.525,371.932 z M 253.884,270.716L 129.675,147.276l 76.80,0.00 l0.00-153.709 
	l 94.819,0.00 L 301.296,147.276 l 76.80,0.00 L 253.884,270.716z" />
<glyph unicode="&#xe031;" d="M 460.017,449.248l-409.60,0.00 c-28.16,0.00-51.20-23.04-51.20-51.20l0.00-281.60 c0.00-28.16, 22.587-55.72, 50.205-61.239l 111.924-22.388
	c0.00,0.00-96.336-34.132-34.128-34.132l 256.00,0.00 c 62.204,0.00-34.132,34.132-34.132,34.132l 111.924,22.388
	c 27.616,5.52, 50.208,33.079, 50.208,61.239l0.00,281.60 C 511.217,426.208, 488.177,449.248, 460.017,449.248z M 460.017,119.008l-409.60,0.00 l0.00,284.16 l 409.60,0.00 
	L 460.017,119.008 z" />
<glyph unicode="&#xe032;" d="M 256.227,479.96L 138.48,293.095l 235.52-0.019L 256.227,479.96z M 256.26-32.028l 117.741,186.864l-235.52,0.019L 256.26-32.028z" />
<glyph unicode="&#xe033;" d="M 256.244,120.032c-27.984,0.00-50.684-22.924-50.684-51.20s 22.70-51.20, 50.684-51.20c 27.996,0.00, 50.684,22.924, 50.684,51.20
		S 284.24,120.032, 256.244,120.032z M 148.724,177.44l 35.84-36.20c 39.584,39.991, 103.776,39.988, 143.364,0.00l 35.836,36.20
		C 304.384,237.428, 208.103,237.428, 148.724,177.44z M 77.045,249.852l 35.836-36.208c 79.176,79.984, 207.543,79.984, 286.72,0.00
		l 35.844,36.208C 336.48,349.82, 176.008,349.82, 77.045,249.852z M 5.36,322.26l 35.832-36.204
		c 118.768,119.965, 311.328,119.965, 430.092,0.00l 35.836,36.20C 368.564,462.22, 143.924,462.22, 5.36,322.26z" />
<glyph unicode="&#xe034;" d="M 255.216,469.732c-135.52,0.00-245.76-110.273-245.76-245.764c0.00-135.52, 110.24-245.76, 245.76-245.76s 245.76,110.24, 245.76,245.76
	C 500.977,359.46, 390.736,469.732, 255.216,469.732z M 464.816,223.968c0.00-47.945-16.264-92.16-43.416-127.52
	c-7.68,6.027-15.84,22.216-8.16,39.016c 7.735,16.904, 9.76,56.001, 8.001,71.224c-1.704,15.20-9.60,51.869-31.089,52.216
	c-21.441,0.321-36.161,7.413-48.912,32.852c-26.448,52.937, 49.656,63.096, 23.20,92.424
	c-7.408,8.22-45.648-33.888-51.248,22.24c-0.376,3.979, 3.464,9.98, 8.584,16.22
	C 404.816,394.741, 464.816,316.259, 464.816,223.968z M 226.416,431.492c-5.017-9.76-18.241-13.732-26.296-21.072
	c-17.488-15.84-25.008-13.648-34.448-28.848c-9.497-15.20-40.112-37.12-40.112-48.112c0.00-10.98, 15.473-23.968, 23.20-21.441
	c 7.735,2.541, 28.112,2.40, 40.112-1.808c 12.00-4.24, 100.208-8.48, 72.104-83.043
	c-8.904-23.704-47.945-19.704-58.344-58.984c-1.552-5.735-6.937-30.348-7.312-38.40c-0.64-12.427, 8.80-59.337-3.20-59.337
	c-12.047,0.00-44.481,41.948-44.481,49.547s-8.423,34.268-8.423,57.092c0.00,22.828-38.824,22.456-38.824,52.801
	c0.00,27.388, 21.064,40.989, 16.321,54.108c-4.64,13.045-41.655,13.524-57.072,15.096C 86.576,369.013, 149.991,420.932, 226.416,431.492
	z M 189.296,25.063c 12.584,6.64, 13.864,15.224, 25.281,15.704c 13.064,0.588, 23.68,5.095, 38.40,8.32
	c 13.064,2.856, 36.425,16.108, 57.015,17.816c 17.328,1.412, 51.568-0.907, 60.80-17.656
	c-33.176-22.024-72.912-34.881-115.576-34.881C 232.176,14.368, 210.04,18.157, 189.296,25.063z" />
<glyph unicode="&#xe035;" d="M 255.203,454.368c-187.82,0.00-230.388-42.592-230.388-230.40c0.00-187.812, 42.569-230.40, 230.388-230.40
	c 187.841,0.00, 230.412,42.588, 230.412,230.40C 485.617,411.776, 443.044,454.368, 255.203,454.368z" />
<glyph unicode="&#xe036;" d="M 494.296,248.488c-10.036,10.664-58.48,58.148-80.636,79.828c-6.784,6.628-16.516,10.852-26.68,10.852
	s-131.764,0.00-131.764,0.00s-121.60,0.00-131.767,0.00c-10.164,0.00-19.892-4.224-26.68-10.852C 74.616,306.636, 26.168,259.152, 16.136,248.488
	C 3.616,235.172-3.255,224.544, 0.015,211.384l 14.361-78.688c 3.259-13.159, 17.679-23.928, 32.04-23.928l 417.601,0.00 
	c 14.361,0.00, 28.78,10.767, 32.04,23.928l 14.361,78.688C 513.683,224.544, 506.817,235.172, 494.296,248.488z M 358.843,231.424
	c-2.60,0.00-4.96-1.32-6.128-3.401l-20.92-52.096L 178.636,175.927 l-20.92,52.096c-1.172,2.08-3.532,3.401-6.133,3.401L 60.844,231.424 
	l 52.24,56.544l 284.26,0.00 L 449.584,231.424L 358.843,231.424 z" />
<glyph unicode="&#xe037;" d="M 134.209,302.98c 5.148,0.00, 10.108-0.779, 14.785-2.22c 17.652,19.781, 37.224,37.78, 58.428,53.76
	c-0.892,3.74-1.416,7.62-1.416,11.64c0.00,5.556, 0.94,10.88, 2.612,15.872c-23.739,17.039-49.568,31.336-77.04,42.388
	c-25.76-15.92-48.216-36.668-66.12-60.983c 13.287-23.537, 29.096-45.48, 47.049-65.456
	C 119.08,301.152, 126.424,302.98, 134.209,302.98z M 84.10,252.873c0.00,7.032, 1.463,13.728, 4.085,19.804
	c-16.084,17.656-30.648,36.707-43.416,57.015C 28.764,297.892, 19.697,262.00, 19.697,223.975c0.00-44.04, 12.112-85.237, 33.152-120.488
	c 7.516,42.372, 21.784,82.413, 41.488,119.128C 87.936,231.024, 84.10,241.488, 84.10,252.873z M 256.116,416.272
	c 13.236,0.00, 25.236-5.168, 34.187-13.553c 26.144,11.253, 53.68,19.876, 82.32,25.384C 338.048,448.032, 297.98,459.492, 255.207,459.492
	c-29.152,0.00-57.056-5.34-82.832-15.032c 20.465-10.101, 39.947-21.90, 58.288-35.189
	C 238.128,413.692, 246.816,416.272, 256.116,416.272z M 331.048,180.256c 3.12,6.488, 7.552,12.232, 13.024,16.80
	c-14.792,45.52-38.224,87.152-68.396,122.96c-6.012-2.552-12.62-3.964-19.56-3.964c-10.872,0.00-20.90,3.50-29.112,9.38
	c-18.161-13.813-34.964-29.288-50.252-46.172C 181.52,271.597, 184.32,262.568, 184.32,252.873c0.00-5.237-0.804-10.276-2.296-15.016
	C 225.98,208.487, 276.56,188.357, 331.048,180.256z M 396.044,112.615c 0.692-9.483, 1.056-19.06, 1.056-28.72
	c0.00-17.00-1.079-33.752-3.137-50.20c 39.936,29.176, 70.348,70.593, 85.68,118.752c-18.161-4.392-36.801-7.533-55.819-9.359
	C 419.356,129.376, 409.16,118.28, 396.044,112.615z M 319.304,146.575C 261.175,156.208, 207.264,178.384, 160.352,210.176
	c-7.617-4.673-16.552-7.42-26.144-7.42c-3.525,0.00-6.96,0.376-10.272,1.064c-22.459-42.584-36.816-90.076-40.936-140.435
	c 22.42-24.04, 49.781-43.408, 80.512-56.412C 201.676,65.652, 255.024,114.195, 319.304,146.575z M 413.316,398.533
	c-37.749-3.639-73.793-13.112-107.348-27.352c 0.172-1.648, 0.256-3.324, 0.256-5.02c0.00-7.908-1.884-15.364-5.145-22.02
	c 33.525-39.364, 59.568-85.237, 76.008-135.449c 20.376-0.364, 37.796-12.844, 45.288-30.577c 22.671,2.30, 44.748,6.64, 66.016,12.892
	c 1.507,10.772, 2.344,21.768, 2.344,32.969C 490.737,293.196, 460.865,355.44, 413.316,398.533z M 344.52,119.808
	c-60.003-28.112-110.179-71.40-146.516-124.328c 18.316-4.568, 37.472-7.032, 57.205-7.032
	c 35.532,0.00, 69.192,7.911, 99.40,22.001c 4.848,23.736, 7.416,48.292, 7.416,73.448c0.00,9.088-0.409,18.084-1.089,27.00
	C 354.885,112.837, 349.327,115.876, 344.52,119.808z" />
<glyph unicode="&#xe038;" d="M 438.924,463.601C 359.044,469.408, 296.123,456.708, 242.285,402.868C 146.048,306.633, 109.568,234.303, 65.353,139.784
	c0.00,0.00-20.62-43.672-62.388-136.083c-8.672-19.18, 18.38-26.316, 24.708-15.631C 67.083,54.608, 104.244,114.048, 104.244,114.048
	c 113.788-38.828, 177.86,23.772, 204.12,43.703c-71.732-4.973-121.30,46.76-121.30,46.76s 177.76-3.08, 225.108,67.00
	C 331.564,278.184, 272.384,311.548, 272.384,311.548s 162.94,21.26, 174.14,34.52c 11.188,13.256, 21.608,40.675, 20.748,49.96
	C 465.093,419.344, 565.563,454.40, 438.924,463.601z" />
<glyph unicode="&#xe039;" d="M 475.377,377.571l-440.32,0.00 c-19.712,0.00-35.84-16.132-35.84-35.84l0.00-235.524 c0.00-19.712, 16.128-35.84, 35.84-35.84l 440.32,0.00 c 19.708,0.00, 35.84,16.128, 35.84,35.84L 511.217,341.731 
	C 511.217,361.44, 495.085,377.571, 475.377,377.571z M 280.817,326.371l 51.20,0.00 l0.00-51.204 l-51.20,0.00 L 280.817,326.371 z M 357.617,249.568l0.00-51.20 l-51.20,0.00 l0.00,51.20 
	L 357.617,249.568 z M 204.016,326.371l 51.20,0.00 l0.00-51.204 l-51.20,0.00 L 204.016,326.371 z M 280.817,249.568l0.00-51.20 l-51.20,0.00 l0.00,51.20 L 280.817,249.568 z M 127.216,326.371l 51.20,0.00 l0.00-51.204 l-51.20,0.00 
	L 127.216,326.371 z M 204.016,249.568l0.00-51.20 l-51.20,0.00 l0.00,51.20 L 204.016,249.568 z M 50.416,326.371l 51.20,0.00 l0.00-51.204 l-51.20,0.00 L 50.416,326.371 z M 127.216,249.568l0.00-51.20 l-51.20,0.00 l0.00,51.20 
	L 127.216,249.568 z M 101.616,121.568l-51.20,0.00 l0.00,51.20 l 51.20,0.00 L 101.616,121.568 z M 383.217,121.568l-256.00,0.00 l0.00,51.20 l 256.00,0.00 L 383.217,121.568 z M 460.017,121.568l-51.20,0.00 l0.00,51.20 l 51.20,0.00 
	L 460.017,121.568 z M 383.217,198.368l0.00,51.20 l 51.20,0.00 l0.00-51.20 L 383.217,198.368 z M 460.017,275.168l-102.40,0.00 L 357.617,326.371 l 102.40,0.00 L 460.017,275.168 z" />
<glyph unicode="&#xe03a;" d="M 479.719,216.276l-205.408,205.604c-10.511,10.891-27.692,10.891-38.192,0.00L 30.712,216.276
		c-10.507-10.891-6.588-19.804, 8.708-19.804l 42.817,0.00 l0.00-157.90 c0.00-11.428, 0.487-20.68, 21.105-20.68l 99.701,0.00 L 203.04,176.248 l 104.339,0.00 l0.00-158.355 
		l 104.668,0.00 c 15.719,0.00, 16.143,9.252, 16.143,20.68L 428.192,196.472 l 42.817,0.00 C 486.30,196.472, 490.221,205.384, 479.719,216.276z" />
<glyph unicode="&#xe03b;" d="M 321.777,454.368l-138.24,0.00 c-14.14,0.00-20.48-11.464-20.48-25.60l0.00-435.20 l 92.16,92.16l 92.16-92.16l0.00,435.20 C 347.377,442.904, 335.916,454.368, 321.777,454.368z" />
<glyph unicode="&#xe03c;" d="M 198.904,165.848l-102.419,40.968l0.00-34.659 l 102.419-40.971L 198.904,165.848 z M 198.904,272.183l-102.419,40.968l0.00-34.659 l 102.419-40.964
		L 198.904,272.183 z M 474.368,449.968c-7.032,4.761-15.968,5.724-23.856,2.568L 255.216,374.416L 59.92,452.536
		c-7.888,3.156-16.824,2.191-23.86-2.568c-7.029-4.761-11.244-12.704-11.244-21.20l0.00-327.68 c0.00-10.471, 6.368-19.88, 16.084-23.772
		l 204.364-81.74c0.00,0.00, 4.192-1.353, 4.981-1.511c 1.644-0.321, 3.309-0.496, 4.973-0.496s 3.324,0.176, 4.967,0.496
		c 0.783,0.16, 4.996,1.52, 4.996,1.52l 204.343,81.733c 9.72,3.892, 16.092,13.301, 16.092,23.772l0.00,327.68 
		C 485.617,437.264, 481.40,445.208, 474.368,449.968z M 229.616,45.944l-163.84,65.532L 65.776,398.399 l 163.84-65.544L 229.616,45.944 z M 444.657,111.476
		l-163.84-65.532L 280.817,332.855 l 163.84,65.544L 444.657,111.476 z M 413.944,206.816l-102.419-40.968l0.00-34.664 l 102.419,40.971L 413.944,206.816 z M 413.944,313.151
		l-102.419-40.968l0.00-34.656 l 102.419,40.964L 413.944,313.151 z" />
<glyph unicode="&#xe03d;" d="M 408.817,428.768L 203.501,428.768 c-28.16,0.00-50.684-22.532-50.684-50.692l0.00-205.308 c0.00-28.16, 23.04-51.20, 51.20-51.20l 204.80,0.00 c 28.16,0.00, 51.20,23.04, 51.20,51.20l0.00,204.80 
		C 460.017,405.728, 436.977,428.768, 408.817,428.768z M 408.817,172.768l-204.80,0.00 l0.00,204.80 l 204.80,0.00 L 408.817,172.768 z M 101.616,223.968l-51.20,0.00 l0.00-153.60 
		c0.00-28.16, 23.04-51.20, 51.20-51.20l 153.60,0.00 l0.00,51.20 l-153.60,0.00 L 101.616,223.968 z" />
<glyph unicode="&#xe03e;" d="M 447.853,84.00L 351.112,180.74c 14.584,23.964, 22.984,52.107, 22.984,82.216c0.00,87.464-75.787,163.252-163.265,163.252
		c-87.46,0.00-158.368-70.912-158.368-158.384c0.00-87.468, 75.784-163.248, 163.244-163.248c 29.084,0.00, 56.32,7.876, 79.74,21.556
		l 97.264-97.269c 9.52-9.52, 24.952-9.52, 34.461,0.00l 24.123,24.12C 460.815,62.504, 457.369,74.488, 447.853,84.00z
		 M 101.20,267.824c0.00,60.56, 49.089,109.652, 109.633,109.652c 60.568,0.00, 114.531-53.961, 114.531-114.52
		s-49.097-109.652-109.656-109.652C 155.161,153.304, 101.20,207.264, 101.20,267.824z" />
<glyph unicode="&#xe03f;" d="M 77.04,280.288c-31.10,0.00-56.32-25.224-56.32-56.32c0.00-31.104, 25.22-56.32, 56.32-56.32s 56.32,25.216, 56.32,56.32
		C 133.36,255.064, 108.141,280.288, 77.04,280.288z M 256.24,280.288c-31.10,0.00-56.32-25.224-56.32-56.32c0.00-31.104, 25.22-56.32, 56.32-56.32
		s 56.32,25.216, 56.32,56.32C 312.561,255.064, 287.341,280.288, 256.24,280.288z M 435.441,280.288c-31.10,0.00-56.32-25.224-56.32-56.32
		c0.00-31.104, 25.22-56.32, 56.32-56.32s 56.32,25.216, 56.32,56.32C 491.761,255.064, 466.541,280.288, 435.441,280.288z" />
<glyph unicode="&#xe040;" d="M 166.64,280.288c-31.10,0.00-56.32-25.224-56.32-56.32c0.00-31.104, 25.22-56.32, 56.32-56.32s 56.32,25.216, 56.32,56.32
	C 222.96,255.064, 197.741,280.288, 166.64,280.288z M 345.841,280.288c-31.10,0.00-56.32-25.224-56.32-56.32c0.00-31.104, 25.22-56.32, 56.32-56.32
	s 56.32,25.216, 56.32,56.32C 402.161,255.064, 376.941,280.288, 345.841,280.288z" />
<glyph unicode="&#xe041;" d="M 256.24,280.288c-31.10,0.00-56.32-25.224-56.32-56.32c0.00-31.104, 25.22-56.32, 56.32-56.32s 56.32,25.216, 56.32,56.32
		C 312.561,255.064, 287.341,280.288, 256.24,280.288z" />
<glyph unicode="&#xe042;" d="M 251.929,469.704C 116.208,467.896, 7.661,356.404, 9.48,220.684c 1.808-135.709, 113.299-244.268, 249.02-242.451
		c 135.709,1.812, 244.268,113.304, 242.451,249.025C 499.141,362.976, 387.632,471.524, 251.929,469.704z M 257.808,29.964
		c-107.147-1.428-195.168,84.268-196.60,191.42c-1.428,107.14, 84.272,195.16, 191.412,196.592
		c 107.147,1.428, 195.16-84.264, 196.60-191.412C 450.648,119.416, 364.953,31.404, 257.808,29.964z M 195.08,182.335
		c-10.379,0.00-18.241,3.777-23.56,11.36c-5.328,7.568-7.98,17.656-7.98,30.28c0.00,27.748, 10.507,41.629, 31.54,41.629
		c 4.199,0.00, 8.76-1.40, 13.66-4.199c 4.90-2.812, 9.04-7.72, 12.412-14.72l 31.536,16.399
		c-12.609,22.708-33.507,34.068-62.668,34.068c-19.909,0.00-36.372-6.588-49.40-19.768c-13.041-13.18-19.572-30.98-19.572-53.408
		c0.00-22.992, 6.465-40.944, 19.352-53.84c 12.888-12.903, 29.872-19.343, 50.90-19.343c 13.173,0.00, 25.228,3.304, 36.161,9.881
		c 10.932,6.593, 19.492,15.631, 25.659,27.132l-29.032,14.72C 218.48,189.064, 208.808,182.335, 195.08,182.335z M 330.92,182.335
		c-10.379,0.00-18.232,3.777-23.552,11.36c-5.328,7.568-7.988,17.656-7.988,30.28c0.00,27.748, 10.507,41.629, 31.54,41.629
		c 4.48,0.00, 9.18-1.40, 14.08-4.199c 4.912-2.812, 9.048-7.72, 12.42-14.72l 31.108,16.399
		c-12.336,22.708-33.079,34.068-62.24,34.068c-19.909,0.00-36.376-6.588-49.416-19.768c-13.031-13.18-19.544-30.98-19.544-53.408
		c0.00-22.992, 6.372-40.944, 19.131-53.84c 12.748-12.903, 29.788-19.343, 51.101-19.343c 12.888,0.00, 24.808,3.304, 35.741,9.881
		c 10.932,6.593, 19.62,15.631, 26.08,27.132l-29.44,14.72C 354.329,189.064, 344.648,182.335, 330.92,182.335z" />
<glyph unicode="&#xe043;" d="M 255.203,459.492c-130.067,0.00-235.508-105.453-235.508-235.524c0.00-130.08, 105.44-235.52, 235.508-235.52
	c 130.08,0.00, 235.532,105.44, 235.532,235.52C 490.737,354.04, 385.284,459.492, 255.203,459.492z M 255.216,147.168
	c-42.412,0.00-76.80,34.388-76.80,76.80c0.00,42.408, 34.388,76.804, 76.80,76.804c 42.408,0.00, 76.80-34.396, 76.80-76.804
	C 332.017,181.556, 297.625,147.168, 255.216,147.168z" />
<glyph unicode="&#xe044;" d="M 232.944,211.456l 46.08,0.00 l0.00-51.20 l 232.96,0.00 c0.00,0.00-3.796,114.12-5.12,149.848c-1.26,33.956-13.412,54.952-51.20,54.952L 373.536,365.056 
	c-12.728,23.992-26.424,49.80-30.628,57.724C 334.432,438.752, 331.535,441.856, 312.712,441.856L 199.252,441.856 
	c-18.824,0.00-21.72-3.104-30.196-19.076c-4.205-7.925-17.896-33.732-30.628-57.724L 56.304,365.056 c-37.792,0.00-49.80-21.00-51.20-54.952
	c-1.40-33.949-5.12-149.848-5.12-149.848l 232.96,0.00 L 232.944,211.456 z M 195.824,392.816c 5.863,11.048, 7.868,13.199, 20.90,13.199l 78.52,0.00 
	c 13.028,0.00, 15.036-2.152, 20.90-13.199c 2.20-4.144, 8.148-15.364, 14.728-27.761L 181.091,365.056 
	C 187.673,377.453, 193.624,388.671, 195.824,392.816z M 279.025,83.456l-46.08,0.00 l0.00,51.20 l-220.16,0.00 c0.00,0.00, 3.185-46.032, 5.12-85.061
	c 0.80-16.18, 5.559-42.94, 46.064-42.94L 448.00,6.656 c 40.503,0.00, 45.164,26.764, 46.064,42.94c 2.228,40.14, 5.12,85.061, 5.12,85.061l-220.16,0.00 
	L 279.025,83.456 z" />
<glyph unicode="&#xe045;" d="M 130.544,211.456l 46.08,0.00 l0.00-51.20 l 158.72,0.00 l0.00,51.20 l 46.08,0.00 l0.00-51.20 l 130.56,0.00 c0.00,0.00-3.796,114.12-5.12,149.848c-1.26,33.956-13.412,54.952-51.20,54.952L 373.536,365.056 
	c-12.728,23.992-26.424,49.80-30.628,57.724C 334.432,438.752, 331.535,441.856, 312.712,441.856L 199.252,441.856 
	c-18.824,0.00-21.72-3.104-30.196-19.076c-4.205-7.925-17.896-33.732-30.628-57.724L 56.304,365.056 c-37.792,0.00-49.80-21.00-51.20-54.952
	c-1.40-33.949-5.12-149.848-5.12-149.848l 130.56,0.00 L 130.544,211.456 z M 195.824,392.816c 5.863,11.048, 7.868,13.199, 20.90,13.199l 78.52,0.00 
	c 13.028,0.00, 15.036-2.152, 20.90-13.199c 2.20-4.144, 8.148-15.364, 14.728-27.761L 181.091,365.056 
	C 187.673,377.453, 193.624,388.671, 195.824,392.816z M 381.425,83.456l-46.08,0.00 l0.00,51.20 l-158.72,0.00 l0.00-51.20 l-46.08,0.00 l0.00,51.20 l-117.76,0.00 c0.00,0.00, 3.185-46.032, 5.12-85.061
	c 0.80-16.18, 5.559-42.94, 46.064-42.94L 448.00,6.656 c 40.503,0.00, 45.164,26.764, 46.064,42.94c 2.228,40.14, 5.12,85.061, 5.12,85.061l-117.76,0.00 
	L 381.425,83.456 z" />
</font>
</defs>
</svg>
